<?xml version="1.0" standalone="no"?>
<!DOCTYPE svg PUBLIC "-//W3C//DTD SVG 1.1//EN" "http://www.w3.org/Graphics/SVG/1.1/DTD/svg11.dtd" >
<svg xmlns="http://www.w3.org/2000/svg" xmlns:xlink="http://www.w3.org/1999/xlink" version="1.1">
<metadata>
Created by FontForge 20170924 at Thu Aug 12 15:18:59 2010
 By root
DES BY QAIDAR RAHEEM PENGWENY 
</metadata>
<defs>
<font id="UniQAIDAR_Hewal036" horiz-adv-x="1088" >
  <font-face 
    font-family="UniQAIDAR_Hewal 036"
    font-weight="400"
    font-stretch="normal"
    units-per-em="2048"
    panose-1="2 11 6 4 3 5 4 4 2 4"
    ascent="1638"
    descent="-410"
    x-height="1247"
    cap-height="1579"
    bbox="-141 -802 2797 1946"
    underline-thickness="128"
    underline-position="-544"
    unicode-range="U+0020-FEFC"
  />
<missing-glyph horiz-adv-x="1536" 
d="M256 0v1280h1024v-1280h-1024zM288 32h960v1216h-960v-1216z" />
    <glyph glyph-name="afii62834" unicode="&#xfedf;&#xfe82;" horiz-adv-x="1112" arabic-form="isolated" 
d="M1083 305q0 -125 -78 -213q-79 -92 -221 -92h-581l88 184h428l-381 650l-199 237h271l471 -813v731l-50 275l252 55v-1014zM598 1403q-55 -139 -166 -139q-72 0 -164 67q-61 43 -104 43q-54 0 -84 -74l-76 33q49 137 160 137q73 0 170 -65q63 -43 104 -43q55 0 84 74z
" />
    <glyph glyph-name="afii62835" unicode="&#xfee0;&#xfe82;" horiz-adv-x="1234" arabic-form="final" 
d="M1142 0q-129 0 -211 61q-78 -61 -189 -61h-583l88 184h430l-381 650l-201 237h271l473 -813v731l-52 275l252 55v-926q0 -209 150 -209h88v-184h-135zM556 1403q-55 -139 -166 -139q-76 0 -164 67q-61 43 -104 43q-53 0 -84 -74l-78 33q49 137 160 137q76 0 170 -65
q67 -43 104 -43q60 0 84 74l76 -33h2z" />
    <glyph glyph-name="afii62836" unicode="&#xfedf;&#xfe84;" horiz-adv-x="1112" arabic-form="isolated" 
d="M1054 305q0 -125 -77 -213q-80 -92 -222 -92h-581l88 184h428l-381 650l-199 237h271l471 -813v731l-50 275l252 55v-1014zM57 1260v75h74q0 88 43 140q43 55 121 55q63 0 122 -41q-2 -6 -4 -12.5t-6 -14.5t-7 -17t-7 -20q-47 39 -74 39q-86 -2 -86 -129h100l76 8l70 -83
h-422z" />
    <glyph glyph-name="afii62837" unicode="&#xfee0;&#xfe84;" horiz-adv-x="1234" arabic-form="final" 
d="M1140 0q-129 0 -211 61q-78 -61 -189 -61h-583l88 184h430l-381 650l-201 237h271l473 -813v731l-52 275l252 55v-926q0 -209 150 -209h88v-184h-135zM40 1260v75h74q0 84 43 140q43 55 121 55q61 0 124 -41q-4 -6 -5 -12.5t-5 -14.5t-7 -17t-7 -20q-47 39 -74 39
q-88 -4 -88 -129h100l76 8l70 -83h-422z" />
    <glyph glyph-name="afii62838" unicode="&#xfedf;&#xfe88;" horiz-adv-x="1112" arabic-form="isolated" 
d="M1054 305q0 -125 -77 -213q-80 -92 -222 -92h-581l88 184h428l-381 650l-199 237h271l471 -813v731l-50 275l252 55v-1014zM57 -391v78h74q0 86 43 141t121 55q63 0 122 -43l-4 -12t-6 -14q-4 -9 -7 -18t-7 -19q-45 39 -74 39q-86 -4 -86 -129h100l76 8l70 -86h-422z" />
    <glyph glyph-name="afii62839" unicode="&#xfee0;&#xfe88;" horiz-adv-x="1234" arabic-form="final" 
d="M1134 0q-129 0 -211 61q-78 -61 -189 -61h-583l88 184h430l-381 650l-201 237h271l473 -813v731l-52 275l252 55v-926q0 -209 150 -209h88v-184h-135zM34 -391v78h74q0 86 43 141t121 55q65 0 124 -43q-4 -6 -5 -12t-5 -14q-4 -9 -7 -18t-7 -19q-45 39 -74 39
q-88 -2 -88 -129h100l76 8l70 -86h-422z" />
    <glyph glyph-name="afii62840" unicode="&#xfedf;&#xfe8e;" horiz-adv-x="1112" arabic-form="isolated" 
d="M1027 305q0 -125 -78 -213q-80 -92 -221 -92h-582l89 184h428l-381 650l-199 237h270l471 -813v731l-49 275l252 55v-1014v0z" />
    <glyph glyph-name="afii62841" unicode="&#xfee0;&#xfe8e;" horiz-adv-x="1234" arabic-form="final" 
d="M1126 0q-129 0 -211 61q-78 -61 -189 -61h-584l89 184h430l-381 650l-201 237h270l473 -813v731l-51 275l252 55v-926q0 -209 150 -209h88v-184h-135z" />
    <glyph glyph-name="lla1" unicode="&#xe008;&#xfe8e;" horiz-adv-x="1112" 
d="M1027 305q0 -125 -78 -213q-80 -92 -221 -92h-582l89 184h428l-381 650l-199 237h270l471 -813v731l-49 275l252 55v-1014v0zM571 1211q-51 23 -88 72q-65 74 -65 159q1 22 3 33q1 3 1 5.5v33.5q34 -5 41 -6t14 -1q8 -2 12 -2.5t30 -0.5q-8 -51 -8 -69q0 -48 27 -75
q20 -21 46 -28q27 7 47 28q27 27 27 75q0 18 -8 69q26 0 30 0.5t12 2.5q7 0 14 1t41 6v-33.5t1 -5.5q2 -11 3 -33q0 -85 -65 -159q-37 -49 -88 -72h-27z" />
    <glyph glyph-name="lla2" unicode="&#xe009;&#xfe8e;" horiz-adv-x="1234" 
d="M1126 0q-129 0 -211 61q-78 -61 -189 -61h-584l89 184h430l-381 650l-201 237h270l473 -813v731l-51 275l252 55v-926q0 -209 150 -209h88v-184h-135zM571 1211q-51 23 -88 72q-65 74 -65 159q1 22 3 33q1 3 1 5.5v33.5q34 -5 41 -6t14 -1q8 -2 12 -2.5t30 -0.5
q-8 -51 -8 -69q0 -48 27 -75q20 -21 46 -28q27 7 47 28q27 27 27 75q0 18 -8 69q26 0 30 0.5t12 2.5q7 0 14 1t41 6v-33.5t1 -5.5q2 -11 3 -33q0 -85 -65 -159q-37 -49 -88 -72h-27z" />
    <glyph glyph-name="afii57369" unicode="&#x6a4;" horiz-adv-x="1271" arabic-form="medial" 
d="M838 0q-10 0 -172 25q-151 -25 -174 -25h-514v184h346q-104 105 -104 267q0 180 118 297q123 118 328 118t328 -118q119 -117 119 -297q0 -162 -107 -267h289v-184h-457zM893 461q0 131 -73 205q-62 61 -154 61q-94 0 -156 -61q-71 -72 -71 -205q0 -301 229 -301
q111 0 172 98q53 84 53 203zM768 1411q0 -49 -37 -86q-37 -36 -88 -36q-49 0 -88 34q-37 37 -37 88q0 52 37 88q37 39 88 39t88 -36q37 -37 37 -91zM932 1094q0 -51 -35 -86q-37 -37 -90 -37q-50 0 -88 35q-37 35 -37 90q0 53 37 86q36 37 88 37q49 0 88 -35q37 -37 37 -90z
M606 1094q0 -51 -37 -86q-37 -37 -90 -37q-47 0 -86 35q-39 33 -39 90q0 53 37 86q39 37 88 37t88 -35q39 -37 39 -90z" />
    <glyph glyph-name="afii57371" unicode="&#x6a4;" horiz-adv-x="1974" arabic-form="final" 
d="M1560 0q-11 0 -172 25q-152 -25 -174 -25h-705q-176 0 -281 121q-104 123 -104 321q0 154 80 291h182q-96 -139 -96 -250q0 -299 244 -299h510q-105 105 -105 267q0 180 119 297q123 118 330 118q209 0 329 -121q115 -112 115 -294q0 -162 -104 -267h284v-184h-452z
M1613 461q0 133 -72 205q-61 61 -153 61q-97 0 -158 -61q-72 -72 -72 -205q0 -301 232 -301q108 0 170 98q53 84 53 203zM1518 1411q0 -49 -37 -86q-37 -36 -88 -36q-49 0 -88 34q-37 37 -37 88q0 52 37 88q37 39 88 39t88 -36q37 -37 37 -91zM1682 1094q0 -51 -35 -86
q-37 -37 -90 -37q-50 0 -88 35q-37 35 -37 90q0 53 37 86q36 37 88 37q49 0 88 -35q37 -37 37 -90zM1356 1094q0 -51 -37 -86q-37 -37 -90 -37q-47 0 -86 35q-39 33 -39 90q0 53 37 86q39 37 88 37t88 -35q39 -37 39 -90z" />
    <glyph glyph-name="afii57372" unicode="&#x6a4;" horiz-adv-x="950" arabic-form="initial" 
d="M863 518q0 -272 -113 -395q-110 -123 -346 -123h-438v184h453q204 0 227 123q-49 -24 -135 -24q-346 0 -346 323q0 174 127 264q96 66 217 66q174 0 266 -94q88 -86 88 -228v-96zM662 610q0 201 -145 201q-150 0 -150 -219q0 -178 134 -178q94 0 159 30v76v90h2z
M638 1411q0 -49 -37 -86q-37 -36 -88 -36q-49 0 -88 34q-37 37 -37 88q0 52 37 88q37 39 88 39t88 -36q37 -37 37 -91zM802 1094q0 -51 -35 -86q-37 -37 -90 -37q-50 0 -88 35q-37 35 -37 90q0 53 37 86q36 37 88 37q49 0 88 -35q37 -37 37 -90zM476 1094q0 -51 -37 -86
q-37 -37 -90 -37q-47 0 -86 35q-39 33 -39 90q0 53 37 86q39 37 88 37t88 -35q39 -37 39 -90z" />
    <glyph glyph-name="afii62958" unicode="&#x67e;" horiz-adv-x="2007" arabic-form="final" 
d="M1814 0q-127 0 -203 63q-77 -63 -200 -63h-920q-180 0 -281 123q-106 125 -106 330q0 159 80 297h184q-98 -138 -98 -254q0 -312 244 -312h843q152 0 152 168v209l-41 250l242 55v-514q0 -168 149 -168h170v-184h-215zM1247 -328q0 -53 -39 -88q-37 -37 -88 -37t-88 37
q-39 43 -39 88q0 54 39 88q39 35 86 35q51 0 90 -35q37 -36 37 -88h2zM919 -328q0 -53 -39 -88q-37 -37 -88 -37t-88 37q-39 43 -39 88q0 54 39 88q39 35 86 35q51 0 90 -35q37 -36 37 -88h2zM1081 -643q0 -55 -37 -88q-37 -37 -88 -37q-49 0 -88 35q-39 39 -39 88
q0 55 37 90q39 35 88 35t88 -35q39 -39 39 -88z" />
    <glyph glyph-name="afii62956" unicode="&#x67e;" horiz-adv-x="671" arabic-form="initial" 
d="M594 297q0 -137 -79 -217q-84 -80 -224 -80h-313v184h264q150 0 150 162v203l-35 262l237 53v-567zM613 -328q0 -53 -35 -88q-37 -37 -88 -37q-55 0 -88 37q-37 39 -37 88q0 54 35 88q39 35 90 35t86 -35q37 -36 37 -88zM285 -328q0 -53 -35 -88q-36 -37 -88 -37
q-51 0 -88 37q-37 39 -37 88q0 54 37 88q39 35 88 35q52 0 86 -35q37 -36 37 -88zM451 -643q0 -55 -37 -88q-41 -37 -88 -37q-49 0 -88 35q-39 37 -39 88q0 55 37 90q39 35 90 35q53 0 88 -35q37 -37 37 -88z" />
    <glyph glyph-name="afii52957" unicode="&#x67e;" horiz-adv-x="737" arabic-form="medial" 
d="M613 0q-125 0 -201 61q-80 -61 -196 -61h-244v184h190q150 0 150 162v199l-41 266l244 55v-520q0 -162 149 -162h103v-184h-154zM590 -328q0 -55 -36 -88q-41 -37 -88 -37q-52 0 -88 37q-39 39 -39 88q0 54 36 88q41 35 91 35q53 0 88 -35q36 -36 36 -88zM263 -328
q0 -55 -37 -88q-41 -37 -88 -37q-51 0 -88 37q-39 39 -39 88q0 54 37 88q41 35 90 35q53 0 88 -35q37 -36 37 -88zM425 -643q0 -53 -35 -88q-37 -37 -90 -37q-52 0 -86 35q-37 37 -37 88q0 55 35 90q39 35 88 35q53 0 88 -35q37 -37 37 -88z" />
    <glyph glyph-name="afii62961" unicode="&#x686;" horiz-adv-x="1294" arabic-form="final" 
d="M1181 0q-229 0 -289 207h-579l4 -209q0 -129 117 -217q120 -90 323 -111l-82 -125q-563 72 -563 518v318h748v149q0 185 -252 185q-248 0 -248 -203h-154q0 174 129 279q125 96 299 96q178 0 301 -92q127 -90 127 -236v-209q0 -166 150 -166h112v-184h-143zM849 47
q0 -84 -84 -84q-86 0 -86 84q0 82 84 82t84 -82h2zM630 47q0 -84 -84 -84q-82 0 -82 84q0 82 80 82q84 0 84 -82h2zM739 -162q0 -84 -84 -84q-82 0 -82 80q0 84 80 84q86 0 86 -80z" />
    <glyph glyph-name="afii62959" unicode="&#x686;" horiz-adv-x="1224" arabic-form="initial" 
d="M879 -328q0 -55 -37 -88q-37 -37 -86 -37q-53 0 -90 37q-37 39 -37 88q0 54 37 88q39 35 88 35q54 0 88 -35q35 -34 35 -88h2zM554 -328q0 -55 -37 -88q-37 -37 -88 -37q-56 0 -88 37q-39 43 -39 88q0 54 37 88q38 35 88 35q51 0 90 -35q35 -34 35 -88h2zM717 -643
q0 -55 -36 -88q-37 -37 -89 -37q-49 0 -88 35q-36 37 -36 88q0 55 36 90q39 35 86 35q52 0 91 -35q36 -37 36 -88zM-26 0v184h887q-19 43 -41.5 86t-46.5 86q-27 43 -55.5 86t-61.5 88q-168 230 -297 230q-94 0 -94 -115q0 -51 31 -137l-216 -25q11 105 39 181q31 79 74 135
q47 57 105 84q57 30 125 30q237 0 477 -346q221 -317 245 -567h-1171z" />
    <glyph glyph-name="afii62960" unicode="&#x686;" horiz-adv-x="1222" arabic-form="medial" 
d="M-28 0v184h887q-19 43 -41.5 86t-46.5 86q-27 43 -55.5 86t-61.5 88q-168 230 -297 230q-94 0 -94 -115q0 -51 31 -137l-216 -25q11 105 39 181q31 79 74 135q47 57 105 84q57 30 125 30q213 0 421 -270q41 -53 78 -108.5t68 -112.5q65 -117 108 -238h156v-184h-1280z
M877 -328q0 -55 -37 -88q-37 -37 -86 -37q-53 0 -90 37q-37 39 -37 88q0 54 37 88q39 35 88 35q54 0 88 -35q37 -36 37 -88zM552 -328q0 -55 -37 -88q-37 -37 -88 -37q-56 0 -88 37q-39 43 -39 88q0 54 37 88q38 35 88 35q51 0 90 -35q35 -34 35 -88h2zM715 -643
q0 -55 -36 -88q-37 -37 -89 -37q-49 0 -88 35q-36 37 -36 88q0 55 36 90q39 35 86 35q52 0 91 -35q36 -37 36 -88z" />
    <glyph glyph-name="afii62962" unicode="&#x698;" horiz-adv-x="696" arabic-form="final" 
d="M577 0q-62 0 -103 14q-37 -356 -438 -467l-45 80q285 90 283 396v514l-43 274l243 55v-512q0 -170 150 -170h117v-184h-164zM436 1511q0 -49 -37 -86q-37 -36 -88 -36q-49 0 -88 34q-39 39 -39 88q0 52 37 88q37 39 88 39t88 -36q37 -37 37 -91h2zM600 1194
q0 -51 -37 -86q-37 -37 -88 -37q-49 0 -88 35t-39 90q0 53 37 86q37 37 88 37q49 0 88 -35q39 -39 39 -90zM274 1194q0 -51 -37 -86q-36 -37 -90 -37q-49 0 -88 35t-39 90q0 51 39 86q37 37 86 37q52 0 90 -35q37 -37 37 -90h2z" />
    <glyph glyph-name="afii62964" unicode="&#x6a9;" horiz-adv-x="1893" arabic-form="final" 
d="M1662 184h256v-184h-1435q-176 0 -281 121q-104 123 -104 321q0 154 80 291h182q-96 -139 -96 -250q0 -299 244 -299h820q147 0 147 168v967l240 -55l-35 -263v-696q0 -67 -18 -121zM581 628v127h94q0 131 68 211q67 82 190 82q101 0 197 -67q-4 -11 -9 -22t-9 -23
q-11 -23 -21 -58q-59 49 -115 47q-143 -2 -139 -170h127l117 11l108 -138h-608z" />
    <glyph glyph-name="afii52305" unicode="&#x6a9;" horiz-adv-x="1429" arabic-form="initial" 
d="M-34 0v184h1174v299q0 236 -347 236h-723q95 92 176.5 173t151.5 157q141 151 240 270h293l-291 -240l-185 -184h381q244 0 373 -98q131 -101 131 -279v-518h-1374z" />
    <glyph glyph-name="afii52306" unicode="&#x6a9;" horiz-adv-x="1509" arabic-form="medial" 
d="M-28 0v184h1171v299q0 236 -346 236h-721q95 92 175.5 173t152.5 157q141 151 240 270h291l-291 -240l-183 -184h381q240 0 373 -98q131 -101 131 -279v-334h193v-184h-1567z" />
    <glyph glyph-name="afii62967" unicode="&#x6af;" horiz-adv-x="2043" arabic-form="final" 
d="M483 0q-176 0 -281 121q-104 123 -104 321q0 154 80 291h182q-96 -139 -96 -250q0 -299 244 -299h1172v299q0 236 -347 236h-723q95 92 176.5 173t151.5 157q141 151 240 270h293l-291 -240l-185 -184h381q244 0 373 -98q131 -101 131 -279v-334h193v-184h-1590z
M642 1063q141 151 233 256h183l-204 -226l-265 -259l-1 172q28 29 54 57z" />
    <glyph glyph-name="afii62965" unicode="&#x6af;" horiz-adv-x="1429" arabic-form="initial" 
d="M70 719q95 92 176.5 173t151.5 157q141 151 240 270h293l-291 -240l-185 -184h381q244 0 373 -98q131 -101 131 -279v-518h-1374v184h1174v299q0 236 -347 236h-723zM102 1063q141 151 233 256h183l-204 -226l-265 -259l-1 172q28 29 54 57z" />
    <glyph glyph-name="afii62966" unicode="&#x6af;" horiz-adv-x="1509" arabic-form="medial" 
d="M1143 483q0 236 -346 236h-721q95 92 175.5 173t152.5 157q141 151 240 270h291l-291 -240l-183 -184h381q240 0 373 -98q131 -101 131 -279v-334h193v-184h-1567v184h1171v299zM112 1063q141 151 233 256h183l-204 -226l-265 -259l-1 172q28 29 54 57z" />
    <glyph glyph-name="afii52364" unicode="&#x6cc;" horiz-adv-x="2009" arabic-form="final" 
d="M1830 0q-143 0 -223 80q-80 84 -80 225v422h-193q-258 0 -258 -328q0 -256 193 -256h172v-135q0 -176 -113 -307q-117 -133 -303 -154h-319q-297 0 -443 177q-137 157 -137 458v371h201v-367q0 -243 104 -374q105 -134 301 -134h244q119 23 188 123q66 86 68 174
q-162 2 -258 103q-109 104 -109 289q0 221 133 360q136 139 349 139h387l-4 -514q0 -168 147 -168h168v-184h-215z" />
    <glyph glyph-name="afii52399" unicode="&#x621;" horiz-adv-x="1224" arabic-form="isolated" 
d="M98 0v184h193q0 484 399 484q143 0 307 -111q-4 -14 -7 -30.5t-7 -32.5q-11 -37 -25 -80q-96 78 -215 73q-248 -6 -248 -303h285l186 23l160 -207h-1028z" />
    <glyph glyph-name="afii62753" unicode="&#x622;" horiz-adv-x="612" arabic-form="final" 
d="M495 0q-144 0 -224 80q-80 84 -80 225v696l-36 263l239 55v-967q0 -168 148 -168h112v-184h-159zM556 1550q-55 -139 -166 -139q-76 0 -164 68q-61 43 -104 43q-53 0 -84 -74l-78 33q49 137 160 137q76 0 170 -66q67 -43 104 -43q60 0 84 74z" />
    <glyph glyph-name="afii62754" unicode="&#x623;" horiz-adv-x="612" arabic-form="final" 
d="M489 0q-144 0 -224 80q-79 84 -79 225v696l-37 263l239 55v-967q0 -168 148 -168h112v-184h-159zM36 1417v76h74q0 84 43 139q43 56 121 56q61 0 124 -41q-4 -7 -5 -13t-5 -14t-7 -17.5t-7 -19.5q-47 39 -74 39q-88 -4 -88 -129h100l76 8l70 -84h-422z" />
    <glyph glyph-name="afii62755" unicode="&#x624;" horiz-adv-x="1101" arabic-form="final" 
d="M898 0q-53 -354 -432 -453l-43 80q264 103 279 373h-195q-164 0 -268 100q-115 111 -115 291q0 223 131 361q133 139 348 139h299v-707h238v-184h-242zM695 772h-104q-123 0 -191 -92q-67 -92 -67 -252q0 -244 190 -244h172v588zM144 997v127h95q0 131 67 211
q68 82 191 82q100 0 196 -67q-4 -11 -9 -22t-9 -23q-10 -23 -21 -58q-59 49 -114 47q-144 -2 -140 -170h127l117 11l109 -138h-609z" />
    <glyph glyph-name="afii62756" unicode="&#x625;" horiz-adv-x="612" arabic-form="final" 
d="M479 0q-144 0 -224 80q-79 84 -79 225v696l-37 263l239 55v-967q0 -168 148 -168h112v-184h-159zM26 -391v78h74q0 86 43 141t121 55q65 0 124 -43q-4 -6 -5 -12t-5 -14q-4 -9 -7 -18t-7 -19q-45 39 -74 39q-88 -2 -88 -129h100l76 8l70 -86h-422z" />
    <glyph glyph-name="afii62759" unicode="&#x626;" horiz-adv-x="2004" arabic-form="final" 
d="M1836 0q-142 0 -221 80q-82 82 -82 225v422h-193q-256 0 -256 -328q0 -256 193 -256h170v-135q0 -176 -113 -307q-117 -133 -303 -154h-320q-292 0 -442 177q-135 159 -135 458v371h201v-367q0 -241 102 -374q104 -134 303 -134h244q114 21 188 123q64 88 66 174
q-158 2 -258 103q-107 106 -107 289q0 221 133 360t348 139h385l-2 -514q0 -168 148 -168h166v-184h-215zM-73 684v123h117q0 283 260 283q104 0 192 -64q-16 -43 -37 -104q-51 49 -116 45q-137 -2 -137 -160h161l119 14l109 -137h-668z" />
    <glyph glyph-name="afii62757" unicode="&#x626;" horiz-adv-x="671" arabic-form="initial" 
d="M38 997v127h94q0 131 68 211q67 82 190 82q100 0 197 -67l-10 -22t-9 -23q-10 -23 -20 -58q-60 49 -115 47q-143 -2 -139 -170h127l116 11l109 -138h-608zM582 297q0 -135 -81 -217q-80 -80 -222 -80h-315v184h264q152 0 152 162v203l-37 262l239 53v-567z" />
    <glyph glyph-name="afii62758" unicode="&#x626;" horiz-adv-x="737" arabic-form="medial" 
d="M613 0q-125 0 -201 61q-80 -61 -196 -61h-244v184h190q150 0 150 162v199l-41 266l244 55v-520q0 -162 149 -162h103v-184h-154zM52 997v127h94q0 129 66 211q67 82 192 82q98 0 195 -67q-4 -11 -9.5 -22t-9.5 -23q-4 -15 -10 -28t-10 -30q-27 23 -55.5 36t-59.5 11
q-141 -2 -137 -170h127l117 11l108 -138h-608z" />
    <glyph glyph-name="afii62760" unicode="&#x627;" horiz-adv-x="612" arabic-form="final" 
d="M475 0q-141 0 -221 80q-82 82 -82 225v696l-35 263l240 55v-967q0 -168 147 -168h111v-184h-160z" />
    <glyph glyph-name="afii62763" unicode="&#x628;" horiz-adv-x="2007" arabic-form="final" 
d="M1816 0q-127 0 -203 63q-77 -63 -200 -63h-920q-180 0 -281 123q-106 125 -106 330q0 159 80 297h184q-98 -138 -98 -254q0 -312 244 -312h843q152 0 152 168v209l-41 250l242 55v-514q0 -168 149 -168h170v-184h-215zM1044 -330q0 -43 -37 -84q-39 -39 -86 -39
q-51 0 -90 35t-39 90q0 52 37 86q37 37 90 37q47 0 86 -35q37 -36 37 -90h2z" />
    <glyph glyph-name="afii62761" unicode="&#x628;" horiz-adv-x="671" arabic-form="initial" 
d="M584 297q0 -135 -81 -217q-80 -80 -222 -80h-315v184h264q152 0 152 162v203l-37 262l237 53v-567h2zM474 -330q0 -47 -37 -84q-37 -39 -88 -39q-49 0 -88 35q-37 33 -37 90q0 52 37 86q37 37 86 37q51 0 90 -35q35 -34 35 -90h2z" />
    <glyph glyph-name="afii62762" unicode="&#x628;" horiz-adv-x="737" arabic-form="medial" 
d="M613 0q-125 0 -201 61q-80 -61 -196 -61h-244v184h190q150 0 150 162v199l-41 266l244 55v-520q0 -162 149 -162h103v-184h-154zM531 -330q0 -45 -35 -84q-37 -39 -88 -39q-53 0 -88 35q-37 33 -37 90q0 52 35 86q37 37 90 37q51 0 86 -35q37 -36 37 -90z" />
    <glyph glyph-name="afii62764" unicode="&#x629;" horiz-adv-x="1140" arabic-form="final" 
d="M989 0q-162 0 -261 104q-106 -57 -264 -59q-166 -4 -260 107q-94 110 -94 294q0 199 131 320q135 123 348 123h68l-15 92q136 35 246 55v-686q0 -166 150 -166h131v-184h-182h2zM690 756q-17 -2 -30 -2t-28 -2h-53q-111 -4 -182 -78q-78 -78 -76 -191q0 -268 188 -268
q93 0 179 25v516h2zM660 1124q0 -51 -35 -86q-37 -37 -90 -37q-51 0 -86 35q-37 35 -37 90q0 51 35 86q37 37 88 37q53 0 88 -35q37 -37 37 -90zM332 1124q0 -51 -35 -86q-37 -37 -90 -37q-51 0 -86 35q-37 35 -37 90q0 51 35 86q37 37 88 37q53 0 88 -35q37 -37 37 -90z
" />
    <glyph glyph-name="afii62767" unicode="&#x62a;" horiz-adv-x="2007" arabic-form="final" 
d="M1210 858q0 -51 -37 -86q-37 -37 -86 -37q-51 0 -90 35q-37 35 -37 90q0 53 37 86q37 37 88 37q49 0 88 -35q35 -35 35 -90h2zM882 858q0 -51 -37 -86q-37 -37 -86 -37q-51 0 -90 35q-37 35 -37 90q0 53 37 86q37 37 88 37q49 0 88 -35q35 -35 35 -90h2zM1820 0
q-127 0 -203 63q-77 -63 -200 -63h-920q-180 0 -281 123q-106 125 -106 330q0 159 80 297h184q-98 -138 -98 -254q0 -312 244 -312h843q152 0 152 168v209l-41 250l242 55v-514q0 -168 149 -168h170v-184h-215z" />
    <glyph glyph-name="afii62765" unicode="&#x62a;" horiz-adv-x="671" arabic-form="initial" 
d="M615 1194q0 -51 -35 -86q-37 -37 -88 -37t-90 35q-37 35 -37 90q0 53 37 86q37 37 90 37q47 0 86 -35q37 -37 37 -90zM287 1194q0 -51 -35 -86q-34 -37 -88 -37q-51 0 -90 35q-37 35 -37 90q0 53 37 86q37 37 90 37q48 0 86 -35q37 -37 37 -90zM592 297q0 -137 -79 -217
q-84 -80 -224 -80h-313v184h264q150 0 150 162v203l-35 262l237 53v-567z" />
    <glyph glyph-name="afii62766" unicode="&#x62a;" horiz-adv-x="737" arabic-form="medial" 
d="M560 1194q0 -51 -35 -86q-37 -37 -90 -37q-51 0 -86 35q-37 35 -37 90q0 51 35 86q37 37 88 37q53 0 88 -35q37 -37 37 -90zM232 1194q0 -51 -35 -86q-37 -37 -90 -37q-51 0 -86 35q-37 35 -37 90q0 51 35 86q37 37 88 37q53 0 88 -35q37 -37 37 -90zM613 0
q-125 0 -201 61q-84 -61 -196 -61h-244v184h188q152 0 152 162v199l-43 266l244 55v-520q0 -162 147 -162h107v-184h-154z" />
    <glyph glyph-name="afii62770" unicode="&#x62b;" horiz-adv-x="2007" arabic-form="final" 
d="M1050 1180q0 -43 -37 -84q-39 -39 -90 -39q-47 0 -86 35q-39 34 -39 90q0 53 37 86q37 37 86 37q51 0 90 -35q37 -37 37 -90h2zM1214 864q0 -51 -37 -86q-37 -37 -88 -37t-90 35t-39 88q0 47 39 86q37 39 88 39q49 0 88 -35q39 -39 39 -90zM886 864q0 -51 -37 -86
q-37 -37 -88 -37t-90 35t-39 88q0 47 39 86q37 39 88 39q49 0 88 -35q37 -36 37 -90h2zM1824 0q-127 0 -203 63q-77 -63 -200 -63h-920q-180 0 -281 123q-106 125 -106 330q0 159 80 297h184q-98 -138 -98 -254q0 -312 244 -312h843q152 0 152 168v209l-41 250l242 55v-514
q0 -168 149 -168h170v-184h-215z" />
    <glyph glyph-name="afii62768" unicode="&#x62b;" horiz-adv-x="671" arabic-form="initial" 
d="M449 1511q0 -47 -35 -86q-35 -36 -88 -36q-51 0 -90 34q-37 37 -37 88q0 52 37 88q37 39 90 39q49 0 86 -36q37 -37 37 -91zM613 1194q0 -51 -35 -86q-37 -37 -90 -37q-51 0 -86 35q-37 35 -37 90q0 51 35 86q37 37 88 37q53 0 88 -35q37 -37 37 -90zM285 1194
q0 -51 -35 -86q-36 -37 -90 -37q-47 0 -86 35q-37 35 -37 90q0 53 37 86q37 37 86 37q54 0 88 -35q37 -37 37 -90zM594 297q0 -137 -79 -217q-84 -80 -224 -80h-313v184h264q150 0 150 162v203l-35 262l237 53v-567z" />
    <glyph glyph-name="afii62769" unicode="&#x62b;" horiz-adv-x="737" arabic-form="medial" 
d="M398 1511q0 -47 -35 -86q-35 -36 -88 -36q-51 0 -90 34q-37 37 -37 88q0 52 37 88q37 39 90 39q49 0 86 -36q37 -37 37 -91zM562 1194q0 -51 -35 -86q-37 -37 -90 -37q-51 0 -86 35q-37 35 -37 90q0 51 35 86q37 37 88 37q49 0 88 -35q37 -37 37 -90zM236 1194
q0 -51 -37 -86q-37 -37 -90 -37q-47 0 -86 35q-37 35 -37 90q0 53 37 86q37 37 86 37t88 -35q39 -37 39 -90zM613 0q-125 0 -201 61q-80 -61 -196 -61h-244v184h190q150 0 150 162v199l-41 266l244 55v-520q0 -162 149 -162h103v-184h-154z" />
    <glyph glyph-name="afii62773" unicode="&#x62c;" horiz-adv-x="1294" arabic-form="final" 
d="M1175 0q-229 0 -289 207h-579l4 -209q0 -70 26 -129q29 -64 80 -109q51 -49 127 -79q74 -35 172 -43l-47 -93q-563 72 -563 518v318h748v172q0 184 -252 184q-64 0 -113 -14q-27 -8 -49.5 -17.5t-40.5 -23.5q-41 -29 -62 -64q-22 -32 -22 -83h-115q0 174 129 278
q125 96 299 96q178 0 301 -92q127 -90 127 -235v-232q0 -166 150 -166h112v-184h-143zM782 -47q0 -47 -37 -84q-37 -39 -86 -39q-51 0 -90 35q-39 39 -39 90t37 88q37 39 90 39q49 0 86 -37t37 -92h2z" />
    <glyph glyph-name="afii62771" unicode="&#x62c;" horiz-adv-x="1224" arabic-form="initial" 
d="M-30 0v184h887q-19 43 -41.5 86t-46.5 86q-27 43 -55.5 86t-61.5 88q-168 230 -297 230q-94 0 -94 -115q0 -51 31 -137l-216 -25q11 105 39 181q31 79 74 135q47 57 105 84q57 30 125 30q237 0 477 -346q223 -317 243 -567h-1169zM720 -330q0 -45 -35 -84
q-37 -39 -88 -39q-52 0 -90 35q-39 35 -39 90q0 52 37 86q36 37 90 37q47 0 86 -35q39 -39 39 -90z" />
    <glyph glyph-name="afii62772" unicode="&#x62c;" horiz-adv-x="1222" arabic-form="medial" 
d="M-28 0v184h887q-19 43 -41.5 86t-46.5 86q-27 43 -55.5 86t-61.5 88q-168 230 -297 230q-94 0 -94 -115q0 -51 31 -137l-216 -25q11 105 39 181q31 79 74 135q47 57 105 84q57 30 125 30q213 0 421 -270q41 -53 78 -108.5t68 -112.5q65 -117 108 -238h156v-184h-1280z
M722 -330q0 -45 -35 -84q-37 -39 -88 -39q-52 0 -90 35q-39 35 -39 90q0 52 37 86q36 37 90 37q47 0 86 -35q39 -39 39 -90z" />
    <glyph glyph-name="afii62776" unicode="&#x62d;" horiz-adv-x="1294" arabic-form="final" 
d="M1185 0q-229 0 -289 207h-579l4 -209q0 -70 26 -129q29 -64 80 -109q51 -49 127 -79q74 -35 172 -43l-47 -93q-563 72 -563 518v318h748v172q0 184 -252 184q-64 0 -113 -14q-27 -8 -49.5 -17.5t-40.5 -23.5q-41 -29 -62 -64q-22 -32 -22 -83h-115q0 174 129 278
q125 96 299 96q178 0 301 -92q127 -90 127 -235v-232q0 -166 150 -166h112v-184h-143z" />
    <glyph glyph-name="afii62774" unicode="&#x62d;" horiz-adv-x="1224" arabic-form="initial" 
d="M-34 0v184h887q-19 43 -41.5 86t-46.5 86q-27 43 -55.5 86t-61.5 88q-168 230 -297 230q-94 0 -94 -115q0 -51 31 -137l-216 -25q11 105 39 181q31 79 74 135q47 57 105 84q57 30 125 30q237 0 477 -346q223 -317 243 -567h-1169z" />
    <glyph glyph-name="afii62775" unicode="&#x62d;" horiz-adv-x="1222" arabic-form="medial" 
d="M-28 0v184h887q-19 43 -41.5 86t-46.5 86q-27 43 -55.5 86t-61.5 88q-168 230 -297 230q-94 0 -94 -115q0 -51 31 -137l-216 -25q11 105 39 181q31 79 74 135q47 57 105 84q57 30 125 30q213 0 421 -270q41 -53 78 -108.5t68 -112.5q65 -117 108 -238h156v-184h-1280z
" />
    <glyph glyph-name="afii62779" unicode="&#x62e;" horiz-adv-x="1294" arabic-form="final" 
d="M767 1194q0 -51 -37 -86q-37 -37 -86 -37q-51 0 -90 35q-37 35 -37 88q0 55 37 88q37 37 88 37q49 0 88 -35q35 -35 35 -90h2zM1187 0q-229 0 -289 207h-579l4 -209q0 -70 26 -129q29 -64 80 -109q51 -49 127 -79q74 -35 172 -43l-47 -93q-563 72 -563 518v318h748v172
q0 184 -252 184q-64 0 -113 -14q-27 -8 -49.5 -17.5t-40.5 -23.5q-41 -29 -62 -64q-22 -32 -22 -83h-115q0 174 129 278q125 96 299 96q178 0 301 -92q127 -90 127 -235v-232q0 -166 150 -166h112v-184h-143z" />
    <glyph glyph-name="afii62777" unicode="&#x62e;" horiz-adv-x="1224" arabic-form="initial" 
d="M615 1194q0 -51 -37 -86q-37 -37 -90 -37q-47 0 -86 35t-39 88q0 55 37 88q37 37 86 37q51 0 90 -35q37 -37 37 -90h2zM-26 0v184h887q-19 43 -41.5 86t-46.5 86q-27 43 -55.5 86t-61.5 88q-168 230 -297 230q-94 0 -94 -115q0 -51 31 -137l-216 -25q11 105 39 181
q31 79 74 135q47 57 105 84q57 30 125 30q237 0 477 -346q221 -317 245 -567h-1171z" />
    <glyph glyph-name="afii62778" unicode="&#x62e;" horiz-adv-x="1222" arabic-form="medial" 
d="M613 1194q0 -51 -37 -86q-37 -37 -90 -37q-47 0 -86 35t-39 88q0 55 37 88q37 37 86 37q51 0 90 -35q37 -37 37 -90h2zM-28 0v184h887q-19 43 -41.5 86t-46.5 86q-27 43 -55.5 86t-61.5 88q-168 230 -297 230q-94 0 -94 -115q0 -51 31 -137l-216 -25q11 105 39 181
q31 79 74 135q47 57 105 84q57 30 125 30q213 0 421 -270q41 -53 78 -108.5t68 -112.5q65 -117 108 -238h156v-184h-1280z" />
    <glyph glyph-name="afii62780" unicode="&#x62f;" horiz-adv-x="1009" arabic-form="final" 
d="M118 0l53 184h518l7 43v215q0 152 -60 238q-53 78 -143 78q-35 0 -64 -15q0 9 -1 20t-3 25q0 15 -2 32.5t-4 37.5h7t14 2q14 4 43 6q186 0 301 -131q116 -133 116 -327v-222v-2h133v-184h-915z" />
    <glyph glyph-name="afii62781" unicode="&#x630;" horiz-adv-x="1009" arabic-form="final" 
d="M632 1194q0 -51 -35 -86q-35 -37 -88 -37q-51 0 -90 35q-37 35 -37 88q0 55 37 88q37 37 90 37q47 0 86 -35q37 -37 37 -90zM126 0l53 184h518l7 43v215q0 152 -60 238q-53 78 -143 78q-35 0 -64 -15q0 9 -1 20t-3 25q0 15 -2 32.5t-4 37.5h7t14 2q14 4 43 6
q186 0 301 -131q116 -133 116 -327v-222v-2h133v-184h-915z" />
    <glyph glyph-name="afii62782" unicode="&#x631;" horiz-adv-x="696" arabic-form="final" 
d="M566 0q-62 0 -103 14q-37 -356 -438 -467l-45 80q285 88 285 396l-2 514l-41 274l243 55v-512q0 -170 150 -170h115v-184h-164z" />
    <glyph glyph-name="afii62783" unicode="&#x632;" horiz-adv-x="696" arabic-form="final" 
d="M451 1194q0 -51 -37 -86q-37 -37 -88 -37q-49 0 -88 35q-37 35 -37 88q0 55 37 88q37 37 86 37t88 -35q37 -37 37 -90h2zM568 0q-62 0 -103 14q-37 -356 -438 -467l-45 80q285 90 283 396v514l-43 274l243 55v-512q0 -170 150 -170h117v-184h-164z" />
    <glyph glyph-name="afii62786" unicode="&#x633;" horiz-adv-x="2525" arabic-form="final" 
d="M2451 0q-123 0 -205 61q-77 -61 -194 -61q-162 0 -275 117q-84 -117 -247 -117q-134 0 -234 82q-14 -238 -164 -399q-164 -175 -454 -175q-295 0 -443 193q-139 176 -139 489v398h201v-389q0 -256 106 -406q107 -147 299 -147q164 0 273 139q59 74 87.5 172t28.5 221v602
l205 49v-577q76 -70 178 -70q146 0 146 162v397l202 45v-528q76 -76 177 -76q147 0 147 162v201l-41 266l244 55v-522q0 -160 147 -160h64v-184h-109z" />
    <glyph glyph-name="afii62784" unicode="&#x633;" horiz-adv-x="1669" arabic-form="initial" 
d="M1569 297q0 -135 -79 -215q-82 -82 -218 -82q-163 0 -276 117q-84 -117 -248 -117q-160 0 -278 123q-13 -17 -19 -23q-4 -6 -10 -12l-10 -10q-84 -78 -219 -78h-238v184h188q146 0 148 162l4 395l201 45v-510v-22q77 -72 182 -72q145 0 145 162v397l201 45v-528
q76 -76 176 -76q146 0 146 162v201l-37 266l241 55v-569v0z" />
    <glyph glyph-name="afii62785" unicode="&#x633;" horiz-adv-x="1746" arabic-form="medial" 
d="M1668 0q-123 0 -205 61q-78 -61 -195 -61q-161 0 -274 117q-84 -117 -248 -117q-156 0 -276 121q-4 -4 -9.5 -10.5t-9.5 -10.5q-6 -6 -11 -12t-9 -10q-88 -78 -219 -78h-240v184h188q148 0 148 162l4 395l201 45v-510v-24q75 -70 178 -70q145 0 145 162v397l203 45v-528
q76 -76 176 -76q148 0 148 162v201l-41 266l243 55v-522q0 -160 148 -160h63v-184h-108z" />
    <glyph glyph-name="afii62789" unicode="&#x634;" horiz-adv-x="2525" arabic-form="final" 
d="M2436 0q-123 0 -205 61q-77 -61 -194 -61q-162 0 -275 117q-84 -117 -247 -117q-134 0 -234 82q-14 -238 -164 -399q-164 -175 -454 -175q-295 0 -443 193q-139 176 -139 489v398h201v-389q0 -256 106 -406q107 -147 299 -147q164 0 273 139q59 74 87.5 172t28.5 221v602
l205 49v-577q76 -70 178 -70q146 0 146 162v397l202 45v-528q76 -76 177 -76q147 0 147 162v201l-41 266l244 55v-522q0 -160 147 -160h64v-184h-109zM1648 1194q0 -51 -37 -86q-37 -37 -88 -37t-90 35t-39 90q0 51 39 86q37 37 88 37q49 0 88 -35q37 -37 37 -90h2z
M1975 1194q0 -51 -36 -86q-37 -37 -91 -37q-49 0 -88 35t-39 90q0 51 39 86q37 37 86 37q52 0 90 -35q39 -39 39 -90zM1810 1511q0 -49 -37 -86q-37 -36 -88 -36q-50 0 -88 34q-37 37 -37 88q0 52 37 88q36 39 86 39q53 0 90 -36q34 -35 34 -91h3z" />
    <glyph glyph-name="afii62787" unicode="&#x634;" horiz-adv-x="1669" arabic-form="initial" 
d="M1571 297q0 -135 -79 -215q-82 -82 -218 -82q-163 0 -276 117q-84 -117 -248 -117q-160 0 -278 123q-13 -17 -19 -23q-4 -6 -10 -12l-10 -10q-84 -78 -219 -78h-238v184h188q146 0 148 162l4 395l201 45v-510v-22q77 -72 182 -72q145 0 145 162v397l201 45v-528
q76 -76 176 -76q146 0 146 162v201l-37 266l241 55v-569zM883 1194q0 -51 -35 -86q-36 -37 -90 -37q-49 0 -88 35q-39 33 -39 90q0 53 37 86q39 37 90 37q47 0 86 -35q39 -37 39 -90zM1211 1194q0 -51 -37 -86q-37 -37 -90 -37q-47 0 -86 35q-39 33 -39 90q0 53 37 86
q39 37 88 37t88 -35q39 -37 39 -90zM1045 1511q0 -47 -35 -86q-37 -36 -90 -36q-51 0 -86 34q-37 37 -37 88q0 50 35 88q37 39 88 39q53 0 88 -36q37 -37 37 -91z" />
    <glyph glyph-name="afii62788" unicode="&#x634;" horiz-adv-x="1746" arabic-form="medial" 
d="M1668 0q-123 0 -205 61q-78 -61 -195 -61q-161 0 -274 117q-84 -117 -248 -117q-156 0 -276 121q-4 -4 -9.5 -10.5t-9.5 -10.5q-6 -6 -11 -12t-9 -10q-88 -78 -219 -78h-240v184h188q148 0 148 162l4 395l201 45v-510v-24q75 -70 178 -70q145 0 145 162v397l203 45v-528
q76 -76 176 -76q148 0 148 162v201l-41 266l243 55v-522q0 -160 148 -160h63v-184h-108zM879 1194q0 -51 -37 -86q-36 -37 -88 -37q-51 0 -90 35t-39 90q0 51 39 86q37 37 88 37q49 0 88 -35q37 -37 37 -90h2zM1207 1194q0 -51 -37 -86q-37 -37 -90 -37q-49 0 -88 35t-39 90
q0 51 39 86q37 37 86 37q51 0 90 -35q39 -39 39 -90zM1041 1511q0 -49 -37 -86q-37 -36 -88 -36q-49 0 -88 34q-37 37 -37 88q0 52 37 88q37 39 86 39q53 0 90 -36q35 -35 35 -91h2z" />
    <glyph glyph-name="afii62792" unicode="&#x635;" horiz-adv-x="2770" arabic-form="final" 
d="M1286 0q-16 -98 -55 -176t-99 -141q-168 -175 -454 -175q-295 0 -443 193q-139 176 -139 489v398h201v-389q0 -256 106 -406q107 -147 299 -147q164 0 273 139q59 74 87.5 172t28.5 221v602l205 49v-602l78 92q340 537 741 537q219 0 357 -100q139 -97 139 -273v-299h186
v-184h-1511zM2408 451q0 233 -336 233q-186 0 -385 -209q-161 -168 -207 -291h928v267z" />
    <glyph glyph-name="afii62790" unicode="&#x635;" horiz-adv-x="1830" arabic-form="initial" 
d="M236 0h-14h-240v184h188q148 0 148 162l4 395l201 45v-413q325 483 706 483q219 0 357 -100q139 -97 139 -273v-483h-1489zM1522 451q0 233 -336 233q-186 0 -385 -209q-162 -168 -207 -291h928v267z" />
    <glyph glyph-name="afii62791" unicode="&#x635;" horiz-adv-x="1892" arabic-form="medial" 
d="M230 0h-20h-238v184h188q146 0 148 162l4 395l201 45v-448q333 518 729 518q215 0 356 -100q139 -99 139 -273v-299h185v-184h-1692zM1533 451q0 233 -336 233q-187 0 -385 -209q-158 -164 -205 -291h926v267z" />
    <glyph glyph-name="afii62795" unicode="&#x636;" horiz-adv-x="2770" arabic-form="final" 
d="M1286 0q-16 -98 -55 -176t-99 -141q-168 -175 -454 -175q-295 0 -443 193q-139 176 -139 489v398h201v-389q0 -256 106 -406q107 -147 299 -147q164 0 273 139q59 74 87.5 172t28.5 221v602l205 49v-602l78 92q340 537 741 537q219 0 357 -100q139 -97 139 -273v-299h186
v-184h-1511zM2408 451q0 233 -336 233q-186 0 -385 -209q-161 -168 -207 -291h928v267zM2199 1194q0 -51 -37 -86q-36 -37 -90 -37q-47 0 -86 35t-39 88q0 55 37 88q37 37 86 37q51 0 90 -35q37 -37 37 -90h2z" />
    <glyph glyph-name="afii62793" unicode="&#x636;" horiz-adv-x="1830" arabic-form="initial" 
d="M230 0h-14h-240v184h188q148 0 148 162l4 395l201 45v-413q325 483 706 483q219 0 357 -100q139 -97 139 -273v-483h-1489zM1516 451q0 233 -336 233q-186 0 -385 -209q-162 -168 -207 -291h928v267zM1307 1194q0 -51 -37 -86q-37 -37 -90 -37q-47 0 -86 35t-39 88
q0 55 37 88q37 37 86 37q51 0 90 -35q37 -37 37 -90h2z" />
    <glyph glyph-name="afii62794" unicode="&#x636;" horiz-adv-x="1892" arabic-form="medial" 
d="M230 0h-20h-238v184h188q146 0 148 162l4 395l201 45v-448q333 518 729 518q215 0 356 -100q139 -99 139 -273v-299h185v-184h-1692zM1533 451q0 233 -336 233q-187 0 -385 -209q-158 -164 -205 -291h926v267zM1324 1194q0 -51 -37 -86q-37 -37 -90 -37q-47 0 -86 35
q-37 35 -37 88q0 55 37 88q37 37 86 37q51 0 90 -35q37 -37 37 -90z" />
    <glyph glyph-name="afii62798" unicode="&#x637;" horiz-adv-x="1900" arabic-form="final" 
d="M108 0l25 213l235 -29q0 6 -1 58.5t-1 152.5v588l-33 252l260 22l-24 -270v-594q47 84 111.5 159t150.5 146q215 174 407 174q222 0 355 -100q139 -100 139 -274v-314h195v-184h-1819zM1527 465q0 233 -329 233q-179 0 -396 -209q-186 -178 -231 -305h956v281z" />
    <glyph glyph-name="afii62796" unicode="&#x637;" horiz-adv-x="1724" arabic-form="initial" 
d="M-34 0v184h305v799l-33 252l258 22l-24 -270v-594q47 86 112.5 160t151.5 145q107 86 207 130t201 44q219 0 352 -100q139 -100 139 -274v-498h-1669zM1430 465q0 233 -329 233q-177 0 -394 -209q-186 -178 -231 -305h954v281z" />
    <glyph glyph-name="afii62797" unicode="&#x637;" horiz-adv-x="1806" arabic-form="medial" 
d="M-28 0v184h307v799l-35 252l258 22l-24 -270v-594q47 86 112.5 160t151.5 145q107 86 207 130t201 44q219 0 352 -100q139 -100 139 -274v-314h195v-184h-1864zM1436 465q0 233 -329 233q-177 0 -394 -209q-96 -90 -149 -163q-55 -74 -82 -142h954v281z" />
    <glyph glyph-name="afii62801" unicode="&#x638;" horiz-adv-x="1900" arabic-form="final" 
d="M1349 1194q0 -51 -37 -86q-37 -37 -90 -37q-49 0 -88 35t-39 88t39 88q37 37 86 37q51 0 90 -35q37 -37 37 -90h2zM114 0l25 213l235 -29q0 6 -1 58.5t-1 152.5v588l-33 252l260 22l-24 -270v-594q47 84 111.5 159t150.5 146q215 174 407 174q222 0 355 -100
q139 -100 139 -274v-314h195v-184h-1819zM1533 465q0 233 -329 233q-179 0 -396 -209q-186 -178 -231 -305h956v281z" />
    <glyph glyph-name="afii62799" unicode="&#x638;" horiz-adv-x="1724" arabic-form="initial" 
d="M1244 1194q0 -51 -37 -86q-37 -37 -88 -37t-90 35t-39 88t39 88q37 37 88 37q49 0 88 -35q37 -37 37 -90h2zM-36 0v184h305v799l-33 252l258 22l-24 -270v-594q47 86 112.5 160t151.5 145q107 86 207 130t201 44q219 0 352 -100q141 -100 141 -274v-498h-1671zM1428 465
q0 233 -329 233q-177 0 -394 -209q-186 -178 -231 -305h954v281z" />
    <glyph glyph-name="afii62800" unicode="&#x638;" horiz-adv-x="1806" arabic-form="medial" 
d="M1252 1194q0 -51 -37 -86q-37 -37 -88 -37q-49 0 -88 35q-37 35 -37 88q0 55 37 88q37 37 86 37q51 0 90 -35q35 -35 35 -90h2zM-28 0v184h307v799l-35 252l258 22l-24 -270v-594q47 86 112.5 160t151.5 145q107 86 207 130t201 44q219 0 352 -100q139 -100 139 -274
v-314h195v-184h-1864zM1436 465q0 233 -329 233q-177 0 -394 -209q-96 -90 -149 -163q-55 -74 -82 -142h954v281z" />
    <glyph glyph-name="afii62804" unicode="&#x639;" horiz-adv-x="1196" arabic-form="final" 
d="M1042 0q-166 0 -373 207q-10 10 -20.5 21.5t-24.5 23.5l-30.5 30.5t-35.5 36.5l-176 -122q-92 -64 -94 -158q-8 -162 123 -275q110 -94 297 -116l-60 -92q-221 24 -362 122q-184 125 -199 353q-12 186 158 301q10 10 54 39.5t122 81.5q-27 24 -55.5 53t-63.5 59
q-32 33 -70 70t-81 78q0 139 143 250q143 110 346 110q199 0 342 -112q144 -115 144 -250l-418 -289q31 -29 69.5 -67t85.5 -83q91 -88 185 -88h184v-184h-190zM892 772q-61 115 -254 115q-24 0 -47.5 -2t-46.5 -6q-23 -7 -42 -13t-36 -16q-33 -16 -59 -43q-23 -29 -29 -62
l195 -188z" />
    <glyph glyph-name="afii62802" unicode="&#x639;" horiz-adv-x="1165" arabic-form="initial" 
d="M-24 0v184h369q-82 107 -82 260q0 97 29.5 173.5t84.5 138.5q117 121 293 118q172 -4 363 -145l-78 -92q-119 78 -238 78q-252 0 -252 -287q0 -115 70 -184q62 -60 152 -60h106l266 29l27 -213h-1110z" />
    <glyph glyph-name="afii62803" unicode="&#x639;" horiz-adv-x="1316" arabic-form="medial" 
d="M891 0q-88 0 -213 53q-20 -12 -141 -8q-90 4 -90 -45h-508v184h475q47 0 80 9q-18 16 -48 42.5t-73 67.5t-97 92t-124 117q0 145 154 262q159 117 374 117q220 0 375 -119q148 -113 152 -260q-17 -14 -102 -93t-244 -226q10 -3 20 -4t21 -3q10 -2 20 -2h21h436v-184h-488
zM986 549q-13 65 -80 108q-90 56 -224 56q-65 0 -121.5 -13.5t-99.5 -42.5q-76 -49 -86 -108q49 -47 127 -121q37 -35 81 -78t97 -90z" />
    <glyph glyph-name="afii62807" unicode="&#x63a;" horiz-adv-x="1196" arabic-form="final" 
d="M775 1309q0 -52 -37 -86q-34 -37 -88 -37q-51 0 -90 35q-37 34 -37 90q0 53 37 86q39 37 90 37q47 0 86 -35q39 -37 39 -90zM1046 0q-166 0 -373 207q-10 10 -20.5 21.5t-24.5 23.5l-30.5 30.5t-35.5 36.5l-176 -122q-92 -64 -94 -158q-8 -162 123 -275q110 -94 297 -116
l-60 -92q-221 24 -362 122q-184 125 -199 353q-12 186 158 301q10 10 54 39.5t122 81.5q-27 24 -55.5 53t-63.5 59q-32 33 -70 70t-81 78q0 139 143 250q143 110 346 110q199 0 342 -112q144 -115 144 -250l-418 -289q31 -29 69.5 -67t85.5 -83q91 -88 185 -88h184v-184
h-190zM896 772q-61 115 -254 115q-24 0 -47.5 -2t-46.5 -6q-23 -7 -42 -13t-36 -16q-33 -16 -59 -43q-23 -29 -29 -62l195 -188z" />
    <glyph glyph-name="afii62805" unicode="&#x63a;" horiz-adv-x="1165" arabic-form="initial" 
d="M765 1194q0 -51 -37 -86q-37 -37 -88 -37q-52 0 -91 35q-38 35 -38 88t38 88q37 37 89 37q49 0 88 -35q36 -37 36 -90h3zM-26 0v184h369q-82 107 -82 260q0 97 29.5 173.5t84.5 138.5q117 121 293 118q172 -4 363 -145l-78 -92q-119 78 -238 78q-252 0 -252 -287
q0 -115 70 -184q62 -60 152 -60h106l266 29l29 -213h-1112z" />
    <glyph glyph-name="afii62806" unicode="&#x63a;" horiz-adv-x="1316" arabic-form="medial" 
d="M809 1194q0 -51 -36 -86q-37 -37 -89 -37q-49 0 -88 35t-39 90q0 51 39 86q37 37 86 37q50 0 88 -35q37 -37 37 -90h2zM891 0q-88 0 -213 53q-20 -12 -141 -8q-90 4 -90 -45h-508v184h475q47 0 80 9q-18 16 -48 42.5t-73 67.5t-97 92t-124 117q0 145 154 262
q159 117 374 117q220 0 375 -119q148 -113 152 -260q-17 -14 -102 -93t-244 -226q10 -3 20 -4t21 -3q10 -2 20 -2h21h436v-184h-488zM986 549q-13 65 -80 108q-90 56 -224 56q-65 0 -121.5 -13.5t-99.5 -42.5q-76 -49 -86 -108q49 -47 127 -121q37 -35 81 -78t97 -90z" />
    <glyph glyph-name="afii62810" unicode="&#x641;" horiz-adv-x="1974" arabic-form="final" 
d="M1510 1194q0 -51 -36 -86q-37 -37 -90 -37q-48 0 -86 35q-39 33 -39 90q0 53 36 86q39 37 89 37q49 0 88 -35q38 -37 38 -90zM1560 0q-11 0 -172 25q-152 -25 -174 -25h-705q-176 0 -281 121q-104 123 -104 321q0 154 80 291h182q-96 -139 -96 -250q0 -299 244 -299h510
q-105 105 -105 267q0 180 119 297q123 118 330 118q209 0 329 -121q115 -112 115 -294q0 -162 -104 -267h284v-184h-452zM1613 461q0 133 -72 205q-61 61 -153 61q-97 0 -158 -61q-72 -72 -72 -205q0 -301 232 -301q108 0 170 98q53 84 53 203z" />
    <glyph glyph-name="afii62808" unicode="&#x641;" horiz-adv-x="950" arabic-form="initial" 
d="M632 1194q0 -51 -37 -86q-37 -37 -86 -37q-51 0 -90 35t-39 90q0 53 37 86q36 37 90 37q47 0 86 -35q37 -37 37 -90h2zM863 518q0 -272 -113 -395q-110 -123 -346 -123h-438v184h453q204 0 227 123q-49 -24 -135 -24q-346 0 -346 323q0 174 127 264q96 66 217 66
q174 0 266 -94q88 -86 88 -228v-96zM662 610q0 201 -145 201q-150 0 -150 -219q0 -178 134 -178q94 0 159 30v76v90h2z" />
    <glyph glyph-name="afii62809" unicode="&#x641;" horiz-adv-x="1271" arabic-form="medial" 
d="M789 1194q0 -51 -37 -86q-37 -37 -86 -37q-51 0 -90 35q-37 35 -37 90q0 53 37 86q37 37 90 37q47 0 86 -35q37 -37 37 -90zM838 0q-10 0 -172 25q-151 -25 -174 -25h-514v184h346q-104 105 -104 267q0 180 118 297q123 118 328 118t328 -118q119 -117 119 -297
q0 -162 -107 -267h289v-184h-457zM893 461q0 131 -73 205q-62 61 -154 61q-94 0 -156 -61q-71 -72 -71 -205q0 -301 229 -301q111 0 172 98q53 84 53 203z" />
    <glyph glyph-name="afii62813" unicode="&#x642;" horiz-adv-x="1490" arabic-form="final" 
d="M1265 1194q0 -51 -37 -86q-37 -37 -86 -37q-51 0 -90 35q-37 35 -37 90q0 53 37 86q37 37 90 37q47 0 86 -35q37 -37 37 -90zM937 1194q0 -51 -35 -86q-37 -37 -88 -37q-53 0 -88 35q-37 35 -37 90q0 51 35 86q37 37 90 37q51 0 86 -35q37 -37 37 -90zM1293 0
q-14 -205 -149 -324q-145 -127 -391 -127q-305 0 -469 170q-162 168 -162 482v188h199v-182q0 -268 131 -406q116 -120 317 -120q295 0 318 319h-203q-82 0 -148 27q-71 28 -118 75q-54 56 -76 125q-29 76 -29 166q0 221 131 346q133 127 348 127h301v-682h234v-184h-234z
M980 727q-258 0 -258 -299q0 -244 193 -244h172v543h-107z" />
    <glyph glyph-name="afii62811" unicode="&#x642;" horiz-adv-x="950" arabic-form="initial" 
d="M805 1194q0 -51 -36 -86q-37 -37 -88 -37q-50 0 -89 35q-38 35 -38 90q0 53 36 86q37 37 88 37q50 0 89 -35q36 -37 36 -90h2zM480 1194q0 -51 -37 -86q-37 -37 -90 -37q-49 0 -88 35t-39 90q0 51 39 86q37 37 86 37q51 0 90 -35q37 -37 37 -90h2zM873 518
q0 -272 -113 -395q-110 -123 -346 -123h-438v184h453q204 0 227 123q-49 -24 -135 -24q-346 0 -346 323q0 174 127 264q96 66 217 66q174 0 266 -94q88 -86 88 -228v-96zM672 610q0 201 -145 201q-150 0 -150 -219q0 -178 134 -178q94 0 159 30v76v90h2z" />
    <glyph glyph-name="afii62812" unicode="&#x642;" horiz-adv-x="1271" arabic-form="medial" 
d="M957 1194q0 -51 -35 -86q-37 -37 -90 -37q-49 0 -88 35q-37 35 -37 88q0 55 37 88q37 37 88 37q49 0 88 -35q37 -37 37 -90zM631 1194q0 -51 -37 -86q-36 -37 -90 -37q-47 0 -86 35q-39 33 -39 88t37 88q39 37 88 37q50 0 88 -35q39 -37 39 -90zM840 0q-10 0 -172 25
q-151 -25 -174 -25h-518v184h350q-104 105 -104 267q0 180 119 297q122 118 327 118t328 -118q119 -117 119 -297q0 -162 -107 -267h289v-184h-457zM896 461q0 131 -74 205q-62 61 -154 61q-94 0 -155 -61q-72 -72 -72 -205q0 -301 229 -301q111 0 172 98q54 84 54 203z" />
    <glyph glyph-name="afii62816" unicode="&#x643;" horiz-adv-x="1893" arabic-form="final" 
d="M1662 184h256v-184h-1435q-176 0 -281 121q-104 123 -104 321q0 154 80 291h182q-96 -139 -96 -250q0 -299 244 -299h820q147 0 147 168v967l240 -55l-35 -263v-696q0 -67 -18 -121zM581 628v127h94q0 131 68 211q67 82 190 82q101 0 197 -67q-4 -11 -9 -22t-9 -23
q-11 -23 -21 -58q-59 49 -115 47q-143 -2 -139 -170h127l117 11l108 -138h-608z" />
    <glyph glyph-name="afii57410" unicode="&#x643;" horiz-adv-x="1429" arabic-form="initial" 
d="M-34 0v184h1174v299q0 236 -347 236h-723q95 92 176.5 173t151.5 157q141 151 240 270h293l-291 -240l-185 -184h381q244 0 373 -98q131 -101 131 -279v-518h-1374z" />
    <glyph glyph-name="afii62815" unicode="&#x643;" horiz-adv-x="1509" arabic-form="medial" 
d="M-28 0v184h1171v299q0 236 -346 236h-721q95 92 175.5 173t152.5 157q141 151 240 270h291l-291 -240l-183 -184h381q240 0 373 -98q131 -101 131 -279v-334h193v-184h-1567z" />
    <glyph glyph-name="afii62819" unicode="&#x644;" horiz-adv-x="1560" arabic-form="final" 
d="M1412 0q-67 0 -110 14q-43 -215 -201 -340q-156 -125 -409 -125q-293 0 -443 183q-135 166 -135 469v379h201v-371q0 -248 106 -387q107 -141 299 -141q158 0 275 139q116 137 116 370v797l-43 275l244 57v-883q0 -145 35 -198q35 -54 115 -54h127v-184h-177z" />
    <glyph glyph-name="afii62817" unicode="&#x644;" horiz-adv-x="743" arabic-form="initial" 
d="M656 305q0 -141 -82 -223t-223 -82h-385v184h334q151 0 151 168v652l-36 270l239 57v-1026h2z" />
    <glyph glyph-name="afii62818" unicode="&#x644;" horiz-adv-x="727" arabic-form="medial" 
d="M619 0q-127 0 -203 63q-75 -63 -194 -63h-250v184h197q147 0 147 168v637l-39 275l244 55v-967q0 -168 147 -168h88v-184h-137z" />
    <glyph glyph-name="afii62822" unicode="&#x645;" horiz-adv-x="1652" arabic-form="final" 
d="M1499 0q-156 0 -235 82q-115 -82 -324 -82h-498q-149 0 -149 -154v-266l-205 137v185q0 129 82 207q78 75 221 75h289q-64 109 -64 219q0 228 136 365q135 137 370 137q74 0 146.5 -12t148.5 -35l-22 -213v-272q0 -189 149 -189h143v-184h-188zM1186 750q-43 14 -107 14
q-260 0 -260 -322q0 -258 176 -258q219 0 219 275v35.5t-2 42.5q-2 41 -12 94z" />
    <glyph glyph-name="afii62820" unicode="&#x645;" horiz-adv-x="1103" arabic-form="initial" 
d="M1010 645v-285q0 -360 -459 -360h-573v184h313q-63 109 -63 219q0 228 135 365t371 137q73 0 146 -12t147 -35zM797 750q-41 14 -106 14q-260 0 -260 -322q0 -258 176 -258q219 0 219 275v35.5t-2 42.5q-2 41 -12 94z" />
    <glyph glyph-name="afii62821" unicode="&#x645;" horiz-adv-x="1277" arabic-form="medial" 
d="M1160 0q-119 0 -195 63q-151 -178 -362 -178q-172 0 -262 152q-68 -37 -154 -37h-215v184h158q137 0 141 135q8 222 143 347q133 125 369 125q74 0 147.5 -12.5t151.5 -35.5l-27 -213v-184q0 -162 150 -162h102v-184h-147zM855 520l-17 115q-41 14 -98 14
q-258 0 -258 -321q0 -129 49 -201q49 -74 123 -74q113 0 199 92z" />
    <glyph glyph-name="afii62825" unicode="&#x646;" horiz-adv-x="1579" arabic-form="final" 
d="M800 559q0 -51 -37 -86q-37 -37 -88 -37q-49 0 -88 35q-37 35 -37 90q0 53 37 86q37 37 86 37q51 0 90 -35q35 -35 35 -90h2zM1381 0q-65 0 -110 14q-39 -217 -199 -340q-157 -125 -411 -125q-295 0 -443 181q-137 164 -137 463v372h201v-366q0 -117 28 -215
q27 -99 80 -166q53 -68 127 -103q74 -37 170 -37q164 0 271 132q122 143 122 372v355l-41 270l240 57v-475q0 -205 150 -205h190v-184h-238z" />
    <glyph glyph-name="afii62823" unicode="&#x646;" horiz-adv-x="671" arabic-form="initial" 
d="M486 1194q0 -51 -35 -86q-37 -37 -88 -37t-90 35q-37 35 -37 88q0 55 37 88q37 37 88 37q49 0 88 -35q35 -35 35 -90h2zM598 297q0 -135 -81 -217q-80 -80 -222 -80h-315v184h264q152 0 152 162v203l-37 262l239 53v-567z" />
    <glyph glyph-name="afii62824" unicode="&#x646;" horiz-adv-x="737" arabic-form="medial" 
d="M500 1194q0 -51 -34 -86q-37 -37 -91 -37q-49 0 -88 35q-39 33 -39 90q0 53 37 86q39 37 90 37q48 0 86 -35q39 -37 39 -90zM613 0q-125 0 -201 61q-80 -61 -196 -61h-244v184h190q150 0 150 162v199l-41 266l244 55v-520q0 -162 149 -162h103v-184h-154z" />
    <glyph glyph-name="afii62828" unicode="&#x647;" horiz-adv-x="1140" arabic-form="final" 
d="M989 0q-162 0 -261 104q-106 -57 -264 -59q-166 -4 -260 107q-94 110 -94 294q0 199 131 320q135 123 348 123h68l-15 92q136 35 246 55v-686q0 -166 150 -166h131v-184h-182h2zM690 756q-17 -2 -30 -2t-28 -2h-53q-111 -4 -182 -78q-78 -78 -76 -191q0 -268 188 -268
q93 0 179 25v516h2z" />
    <glyph glyph-name="afii62827" unicode="&#x6be;" horiz-adv-x="1277" arabic-form="final" 
d="M1303 184v-184h-934h-340h-53v184h297q-33 60 -33 127q0 148 115 256q117 109 268 109q117 0 184 -62q78 -67 78 -190l-6 -240h117v369q0 119 -96 180q-101 66 -256 66q-176 0 -361 -80l33 151q172 66 383 66q215 0 342 -78q158 -92 158 -270v-404h104zM697 455
q0 118 -84 118q-66 0 -125 -75q-70 -86 -70 -199q0 -115 144 -115h133v271h2z" />
    <glyph glyph-name="afii62829" unicode="&#x648;" horiz-adv-x="1101" arabic-form="final" 
d="M898 0q-53 -354 -432 -453l-43 80q264 103 279 373h-195q-164 0 -268 100q-115 111 -115 291q0 223 131 361q133 139 348 139h299v-707h238v-184h-242zM695 772h-104q-123 0 -191 -92q-67 -92 -67 -252q0 -244 190 -244h172v588z" />
    <glyph glyph-name="afii62830" unicode="&#x649;" horiz-adv-x="2009" arabic-form="final" 
d="M1830 0q-143 0 -223 80q-80 84 -80 225v422h-193q-258 0 -258 -328q0 -256 193 -256h172v-135q0 -176 -113 -307q-117 -133 -303 -154h-319q-297 0 -443 177q-137 157 -137 458v371h201v-367q0 -243 104 -374q105 -134 301 -134h244q119 23 188 123q66 86 68 174
q-162 2 -258 103q-109 104 -109 289q0 221 133 360q136 139 349 139h387l-4 -514q0 -168 147 -168h168v-184h-215z" />
    <glyph glyph-name="afii62833" unicode="&#x64a;" horiz-adv-x="2009" arabic-form="final" 
d="M1830 0q-143 0 -223 80q-80 84 -80 225v422h-193q-258 0 -258 -328q0 -256 193 -256h172v-135q0 -176 -113 -307q-117 -133 -303 -154h-319q-297 0 -443 177q-137 157 -137 458v371h201v-367q0 -243 104 -374q105 -134 301 -134h244q119 23 188 123q66 86 68 174
q-162 2 -258 103q-109 104 -109 289q0 221 133 360q136 139 349 139h387l-4 -514q0 -168 147 -168h168v-184h-215zM1080 -630q0 -47 -37 -84q-37 -39 -88 -39q-52 0 -90 35q-39 35 -39 90q0 52 39 86q36 37 88 37q49 0 88 -35q37 -36 37 -90h2zM754 -630q0 -43 -37 -84
q-39 -39 -90 -39q-49 0 -88 35t-39 90q0 52 39 86q37 37 86 37q51 0 90 -35q37 -36 37 -90h2z" />
    <glyph glyph-name="afii62831" unicode="&#x64a;" horiz-adv-x="694" arabic-form="initial" 
d="M597 297q0 -135 -82 -217q-80 -80 -221 -80h-316v184h265q151 0 151 162v203l-37 262l238 53v-567h2zM540 -330q0 -47 -37 -84q-37 -39 -88 -39q-52 0 -90 35q-39 35 -39 90q0 52 39 86q36 37 88 37q49 0 88 -35q37 -36 37 -90h2zM214 -330q0 -43 -37 -84
q-39 -39 -90 -39q-49 0 -88 35t-39 90q0 52 39 86q37 37 86 37q51 0 90 -35q37 -36 37 -90h2z" />
    <glyph glyph-name="afii62832" unicode="&#x64a;" horiz-adv-x="737" arabic-form="medial" 
d="M619 0q-125 0 -200 61q-80 -61 -197 -61h-246v184h191q151 0 151 162v211l-43 264l244 53v-528q0 -162 149 -162h105v-184h-154zM546 -330q0 -47 -37 -84q-37 -39 -88 -39q-49 0 -88 35q-37 33 -37 90q0 52 37 86q36 37 86 37q49 0 88 -35q37 -36 37 -90h2zM220 -330
q0 -43 -37 -84q-39 -39 -90 -39q-49 0 -88 35t-39 90q0 52 39 86q37 37 86 37q51 0 90 -35q37 -36 37 -90h2z" />
    <glyph glyph-name="uni0676.fina" unicode="&#x676;" horiz-adv-x="1101" 
d="M898 0q-53 -354 -432 -453l-43 80q264 103 279 373h-195q-164 0 -268 100q-115 111 -115 291q0 223 131 361q133 139 348 139h299v-707h238v-184h-242zM695 772h-104q-123 0 -191 -92q-67 -92 -67 -252q0 -244 190 -244h172v588zM144 997v127h95q0 131 67 211
q68 82 191 82q100 0 196 -67q-4 -11 -9 -22t-9 -23q-10 -23 -21 -58q-59 49 -114 47q-144 -2 -140 -170h127l117 11l109 -138h-609z" />
    <glyph glyph-name="unifbda" unicode="&#x6c6;" horiz-adv-x="1101" arabic-form="final" 
d="M898 0q-53 -354 -432 -453l-43 80q264 103 279 373h-195q-164 0 -268 100q-115 111 -115 291q0 223 131 361q133 139 348 139h299v-707h238v-184h-242zM695 772h-104q-123 0 -191 -92q-67 -92 -67 -252q0 -244 190 -244h172v588zM537 970q-51 23 -88 72q-65 74 -65 159
q1 22 3 33q1 3 1 5.5v33.5q34 -5 41 -6t14 -1q8 -2 12 -2.5t30 -0.5q-8 -51 -8 -69q0 -48 27 -75q20 -21 46 -28q27 7 47 28q27 27 27 75q0 18 -8 69q26 0 30 0.5t12 2.5q7 0 14 1t41 6v-33.5t1 -5.5q2 -11 3 -33q0 -85 -65 -159q-37 -49 -88 -72h-27z" />
    <glyph glyph-name="FY1" unicode="&#x6cc;" horiz-adv-x="694" arabic-form="initial" 
d="M597 297q0 -135 -82 -217q-80 -80 -221 -80h-316v184h265q151 0 151 162v203l-37 262l238 53v-567h2zM540 -330q0 -47 -37 -84q-37 -39 -88 -39q-52 0 -90 35q-39 35 -39 90q0 52 39 86q36 37 88 37q49 0 88 -35q37 -36 37 -90h2zM214 -330q0 -43 -37 -84
q-39 -39 -90 -39q-49 0 -88 35t-39 90q0 52 39 86q37 37 86 37q51 0 90 -35q37 -36 37 -90h2z" />
    <glyph glyph-name="FY2" unicode="&#x6cc;" horiz-adv-x="737" arabic-form="medial" 
d="M619 0q-125 0 -200 61q-80 -61 -197 -61h-246v184h191q151 0 151 162v211l-43 264l244 53v-528q0 -162 149 -162h105v-184h-154zM546 -330q0 -47 -37 -84q-37 -39 -88 -39q-49 0 -88 35q-37 33 -37 90q0 52 37 86q36 37 86 37q49 0 88 -35q37 -36 37 -90h2zM220 -330
q0 -43 -37 -84q-39 -39 -90 -39q-49 0 -88 35t-39 90q0 52 39 86q37 37 86 37q51 0 90 -35q37 -36 37 -90h2z" />
    <glyph glyph-name=".notdef" horiz-adv-x="1536" 
d="M256 0v1280h1024v-1280h-1024zM288 32h960v1216h-960v-1216z" />
    <glyph glyph-name=".null" horiz-adv-x="0" 
 />
    <glyph glyph-name="nonmarkingreturn" horiz-adv-x="640" 
 />
    <glyph glyph-name="space" unicode=" " horiz-adv-x="640" 
 />
    <glyph glyph-name="exclam" unicode="!" horiz-adv-x="651" 
d="M364 403h-78l-68 568v348h211v-348zM441 113q0 -47 -34 -82q-33 -33 -82 -33q-117 0 -117 115q0 43 33 80q30 34 82 34q49 0 82 -32q36 -33 36 -82z" />
    <glyph glyph-name="quotedbl" unicode="&#x22;" horiz-adv-x="552" 
d="M483 1211q0 -59 -21 -180.5t-21 -231.5h-77q0 110 -19.5 231t-19.5 181q0 74 79 74q31 0 55 -21.5t24 -52.5zM226 1211q0 -59 -20 -180.5t-20 -231.5h-77q0 110 -19.5 231t-19.5 181q0 74 76 74q33 0 56.5 -21.5t23.5 -52.5z" />
    <glyph glyph-name="numbersign" unicode="#" horiz-adv-x="991" 
d="M497 1543l-50 -348h173l50 348h170l-50 -348h168l-23 -163h-169l-31 -218h170l-23 -163h-169l-51 -353h-170l51 353h-173l-51 -353h-169l50 353h-168l23 163h168l31 218h-169l23 163h170l49 348h170zM424 1032l-32 -218h174l31 218h-173z" />
    <glyph glyph-name="dollar" unicode="$" horiz-adv-x="991" 
d="M528 1685v-123q91 -4 161.5 -30.5t119 -73.5t73.5 -113t25 -149h-228q0 88 -34 131t-117 50v-337l22 -7q209 -60 296 -147t87 -238q0 -83 -28.5 -151.5t-81.5 -118.5t-127.5 -79t-167.5 -33v-173h-81v172q-189 12 -291.5 107.5t-102.5 276.5l1 31h242q0 -5 -0.5 -10
t-0.5 -10q0 -92 37 -140.5t115 -60.5v373q-189 60 -275 137q-92 83 -92 224q0 79 25.5 144t72.5 113t115 76t154 34v125h81zM528 458q76 8 120.5 53.5t44.5 119.5q0 63 -37 104.5t-128 70.5v-348zM447 1375q-67 -9 -104 -50.5t-37 -104.5q0 -50 34 -85.5t107 -66.5v307z" />
    <glyph glyph-name="percent" unicode="%" horiz-adv-x="829" 
d="M362 1110q0 -45 -33 -82q-35 -35 -84 -35q-47 0 -80 33q-37 35 -37 84q0 43 33 80q35 35 82 35q49 0 82 -33q35 -33 35 -82h2zM266 -29l-156 45l426 1241l158 -49zM718 197q0 -47 -33 -84q-34 -35 -81 -35q-50 0 -82 33q-37 34 -37 86q0 43 33 79q34 35 84 35
q49 0 81 -32q35 -35 35 -82z" />
    <glyph glyph-name="ampersand" unicode="&#x26;" horiz-adv-x="1287" 
d="M258 1269q0 71 23.5 128.5t67.5 97.5t105.5 61.5t138.5 21.5q70 0 127.5 -21t98.5 -60.5t63 -95t22 -124.5q0 -89 -51.5 -161.5t-161.5 -139.5l189 -230l17 34q23 45 35 91t17 92h220q-12 -128 -75 -261q-33 -70 -73 -127l228 -275h-295l-87 104q-37 -32 -70 -55t-64 -37
q-90 -41 -231 -41q-93 0 -167.5 25t-127.5 71.5t-81.5 113.5t-28.5 150q0 141 84 239q29 35 75.5 72t111.5 75l-7 8q-48 57 -75.5 123t-27.5 121zM537 476q51 0 96 21.5t100 69.5l-238 292q-74 -53 -111 -103t-37 -111q0 -79 49.5 -124t140.5 -45zM485 1288q-1 -28 10 -56
t31 -52l51 -63q59 44 88 81.5t29 79.5q0 52 -27.5 81.5t-76.5 29.5q-48 0 -76.5 -25.5t-28.5 -75.5z" />
    <glyph glyph-name="quotesingle" unicode="'" horiz-adv-x="352" 
d="M107 1515h144v-485h-144v485z" />
    <glyph glyph-name="parenleft" unicode="(" horiz-adv-x="604" 
d="M477 -328q-303 242 -389 564q-35 129 -35 262t35 262q55 196 137 315q82 115 252 248l74 -76q-199 -233 -258 -495q-9 -35 -13 -68t-8 -63q-4 -33 -6 -64t-2 -59q0 -140 31 -262q41 -173 92 -267q26 -47 66 -101t98 -120z" />
    <glyph glyph-name="parenright" unicode=")" horiz-adv-x="606" 
d="M551 498q0 -72 -8.5 -137.5t-24.5 -124.5q-43 -160 -139.5 -300.5t-249.5 -263.5l-74 76q111 125 160 221q51 90 94 267q16 61 24.5 126.5t8.5 135.5q0 28 -2 59t-6 61l-10 66t-11 68q-61 268 -258 495l72 76q166 -125 250 -248q88 -125 139 -315q33 -117 33 -262h2z" />
    <glyph glyph-name="asterisk" unicode="*" horiz-adv-x="891" 
d="M444 1126l-152 -219l-121 81l171 213l-247 68l44 138l239 -82v257h134v-257l236 82l48 -138l-251 -68l173 -211l-119 -88z" />
    <glyph glyph-name="plus" unicode="+" horiz-adv-x="1041" 
d="M418 649h-347v205h347v346h205v-346h346v-205h-346v-346h-205v346z" />
    <glyph glyph-name="comma" unicode="," horiz-adv-x="495" 
d="M114 300v259h267v-223q0 -139 -65 -221t-202 -115v96q39 13 66 30t44.5 40.5t26 56t11.5 77.5h-148z" />
    <glyph glyph-name="hyphen" unicode="-" horiz-adv-x="810" 
d="M60 193l66 208h621l-66 -208h-621z" />
    <glyph glyph-name="period" unicode="." horiz-adv-x="495" 
d="M382 137q0 -55 -37 -96q-40 -41 -98 -41q-55 0 -94 39q-41 41 -41 98q0 58 39 96q41 41 96 41q58 0 96 -38q39 -39 39 -99z" />
    <glyph glyph-name="slash" unicode="/" horiz-adv-x="604" 
d="M166 -29l-156 45l430 1241l152 -49z" />
    <glyph glyph-name="zero" unicode="0" horiz-adv-x="1019" 
d="M59 871q0 78 10 157.5t31.5 152.5t56.5 136.5t85 110t116.5 73.5t150.5 27t150 -27t116 -73.5t85 -110t57 -136.5t32 -152t10 -158q0 -78 -10 -157t-32 -152t-57 -137t-85 -111t-116 -74t-150 -27q-85 0 -151 27t-116 73.5t-85 110t-56.5 137t-31.5 152.5t-10 158z
M339 871q0 -225 42 -331.5t128 -106.5q87 0 129 107.5t42 330.5q0 224 -42 332t-129 108q-86 0 -128 -107t-42 -333z" />
    <glyph glyph-name="one" unicode="1" horiz-adv-x="1019" 
d="M457 237v986q-54 -36 -113.5 -78t-109.5 -76l-80 191l295 247h276v-1270h-268z" />
    <glyph glyph-name="two" unicode="2" horiz-adv-x="1019" 
d="M935 237h-805l-29 212q43 45 96 95.5t107.5 104.5t107 110.5t94.5 114t70 114t33 111.5q-3 52 -20.5 88.5t-44.5 60t-61.5 34.5t-73.5 11q-62 0 -125.5 -24.5t-114.5 -66.5l-89 202q101 66 198 96t201 30q94 0 171 -32t131.5 -86.5t84.5 -126t30 -150.5q0 -67 -22 -130
t-59.5 -122t-85.5 -114t-100.5 -106t-104.5 -97t-97 -88h508v-241z" />
    <glyph glyph-name="three" unicode="3" horiz-adv-x="1019" 
d="M132 1464q60 32 137.5 49t158.5 17q79 0 155 -18t135.5 -56t96 -98.5t36.5 -145.5t-52 -163t-157 -133q125 -57 184.5 -139t59.5 -197q0 -97 -39.5 -166.5t-104 -114.5t-148 -66t-170.5 -21q-91 0 -178 21.5t-156 62.5l58 182q42 -29 97 -43t113 -14q50 0 98 10t85 30.5
t59.5 50t22.5 68.5q0 36 -22 72.5t-66.5 65.5t-112 48t-157.5 20l-10 187q46 6 102.5 21.5t107 41.5t86 61.5t38.5 82.5q-3 40 -21 68t-45 46t-61.5 26t-71.5 8q-50 0 -98.5 -12.5t-86.5 -34.5z" />
    <glyph glyph-name="four" unicode="4" horiz-adv-x="1019" 
d="M565 237v288h-532v235l613 763h173v-750h122v-248h-122v-288h-254zM566 773v353l-287 -353h287z" />
    <glyph glyph-name="five" unicode="5" horiz-adv-x="1019" 
d="M212 445q37 -14 74.5 -20t73.5 -6q61 0 115.5 16t95.5 44.5t65 67.5t24 86q0 70 -33 109.5t-89 59t-130.5 24t-158.5 4.5h-67v677h671v-231h-441v-204q124 -2 220 -32.5t161.5 -87t99.5 -138t34 -186.5q0 -108 -45.5 -186.5t-119.5 -130t-168 -76t-191 -24.5
q-70 0 -137.5 12.5t-127.5 36.5z" />
    <glyph glyph-name="six" unicode="6" horiz-adv-x="1019" 
d="M87 679q0 113 37.5 231t106.5 230t166.5 211.5t217.5 175.5q12 -14 30 -37.5t37 -48t36.5 -46.5t26.5 -33q-223 -145 -312 -316q23 6 49 9.5t51 3.5q75 0 147.5 -27t130.5 -79.5t93.5 -130.5t35.5 -179q0 -94 -31.5 -172.5t-88 -135.5t-134.5 -88.5t-172 -31.5
q-103 0 -182.5 34t-134 95.5t-82.5 147t-28 187.5zM538 451q40 0 71.5 18t53 45t33 58t11.5 58q-5 43 -27 78t-54.5 60.5t-72.5 39.5t-82 14q-32 0 -63.5 -9t-59.5 -28q-11 -42 -11 -83q0 -48 13 -93.5t38 -80.5t62.5 -56t87.5 -21z" />
    <glyph glyph-name="seven" unicode="7" horiz-adv-x="1019" 
d="M236 289l375 992h-529v226h814v-212l-426 -1094z" />
    <glyph glyph-name="eight" unicode="8" horiz-adv-x="1019" 
d="M509 1528q86 0 156 -31.5t119.5 -82t76.5 -114.5t27 -130q0 -75 -37 -143.5t-119 -116.5q115 -56 167 -136t52 -184q0 -85 -32 -154.5t-90 -119t-139.5 -76.5t-180.5 -27q-103 0 -185 27t-139 76.5t-87.5 119t-30.5 154.5q0 50 14 95.5t39.5 84.5t61.5 71.5t79 55.5
q-77 54 -113 128.5t-36 152.5q0 67 26 130t76 112t124.5 78.5t170.5 29.5zM502 765q-43 0 -75.5 -15.5t-54 -40t-32 -56t-10.5 -63.5t10.5 -62t31.5 -52.5t52 -36t72 -13.5q42 0 76 9t58 29.5t37 54.5t13 85q0 7 -2.5 21.5t-9 32.5t-18.5 37t-32 34.5t-48.5 25.5t-67.5 10z
M352 1166q0 -29 16.5 -58t39.5 -52t49 -37t46 -14q4 0 6.5 0.5t5.5 1.5h-1q21 8 44.5 21.5t43 33t32.5 44.5t13 55q0 32 -13 58t-34.5 44t-50 28t-58.5 10q-27 0 -52 -8.5t-44.5 -25t-31 -42t-11.5 -59.5z" />
    <glyph glyph-name="nine" unicode="9" horiz-adv-x="1019" 
d="M926 1057q0 -113 -38 -231t-107 -229.5t-167 -211t-218 -175.5q-43 58 -78.5 100t-50.5 62q222 146 311 317q-23 -6 -48.5 -9.5t-49.5 -3.5q-75 0 -147.5 27t-130.5 80t-93.5 130.5t-35.5 178.5q0 94 31.5 173t87.5 136t134.5 88.5t171.5 31.5q103 0 183 -34.5t134.5 -96
t82.5 -146.5t28 -187zM474 1285q-41 0 -72 -16.5t-53 -41.5t-33 -54.5t-11 -56.5q0 -45 21.5 -82.5t55 -64t75.5 -41t84 -14.5q66 0 123 37q5 20 7.5 42t2.5 44q0 49 -13.5 94t-39 79t-62.5 54.5t-85 20.5z" />
    <glyph glyph-name="colon" unicode=":" horiz-adv-x="495" 
d="M382 598q0 -55 -37 -96q-40 -41 -98 -41q-55 0 -94 39q-41 41 -41 98t39 96q41 41 96 41q58 0 96 -39q39 -39 39 -98zM382 137q0 -55 -37 -96q-40 -41 -98 -41q-55 0 -94 39q-41 41 -41 98q0 58 39 96q41 41 96 41q58 0 96 -38q39 -39 39 -99z" />
    <glyph glyph-name="semicolon" unicode=";" horiz-adv-x="593" 
d="M164 300v260h267v-194q0 -157 -63.5 -245t-197.5 -116v96q37 11 62 26.5t41.5 39t24.5 56t11 77.5h-145zM164 1213h266v-259h-266v259z" />
    <glyph glyph-name="less" unicode="&#x3c;" horiz-adv-x="1041" 
d="M68 666v171l905 383v-197l-643 -271l643 -272v-197z" />
    <glyph glyph-name="equal" unicode="=" horiz-adv-x="810" 
d="M60 665l66 205h621l-66 -208zM60 286l66 208h621l-66 -208h-621z" />
    <glyph glyph-name="greater" unicode="&#x3e;" horiz-adv-x="1041" 
d="M973 666l-905 -383v197l643 272l-643 271v197l905 -383v-171z" />
    <glyph glyph-name="question" unicode="?" 
d="M549 1390q-97 0 -144 -52.5t-50 -164.5h-248q3 100 34.5 179.5t88.5 135t137.5 84.5t181.5 29t182.5 -26.5t139 -75.5t88.5 -119t31 -156q0 -92 -55 -174q-55 -81 -184 -178q-47 -36 -67.5 -75.5t-20.5 -101.5q0 -5 0.5 -10t0.5 -10h-232v15q0 112 41 192q43 84 154 161
q26 18 44 37t29.5 40.5t17 46.5t5.5 57q0 75 -46.5 120.5t-127.5 45.5zM418 549h261v-249h-261v249z" />
    <glyph glyph-name="at" unicode="@" horiz-adv-x="1737" 
d="M1170 702q45 0 83.5 27.5t67 74t45 109t16.5 133.5q0 89 -38 166.5t-103 135t-152 90.5t-186 33q-108 0 -202 -41.5t-164.5 -114t-111 -169.5t-40.5 -208t39 -208.5t107 -169.5t160 -114t198 -42q134 0 245 43q115 44 168 112h157q-77 -134 -231 -216q-78 -42 -160 -61.5
t-171 -19.5q-289 0 -488 196q-198 196 -198 480q0 282 198 479q199 197 485 197q266 0 448 -165q183 -165 183 -403q0 -200 -137 -352q-137 -150 -317 -150q-18 0 -35 6.5t-30.5 18.5t-23 29.5t-10.5 39.5q-87 -94 -190 -94q-65 0 -118 25.5t-91 70t-59 105t-21 131.5
q0 85 31.5 162t84.5 134.5t124 91.5t150 34q62 0 110.5 -27.5t85.5 -80.5l18 83h173l-116 -519q-3 -11 -3 -20q0 -14 5.5 -23t13.5 -9zM897 1122q-42 0 -79.5 -20t-66.5 -53.5t-46 -77.5t-17 -92q0 -75 38 -115.5t107 -40.5q39 0 76.5 19.5t67 53.5t48 80.5t18.5 100.5
q0 66 -40 105.5t-106 39.5z" />
    <glyph glyph-name="A" unicode="A" horiz-adv-x="1287" 
d="M36 300l452 1279h310l453 -1279h-284l-86 260h-485l-85 -260h-275zM639 1294l-169 -514h340z" />
    <glyph glyph-name="B" unicode="B" horiz-adv-x="1287" 
d="M136 300v1279h619q92 0 165 -22t124 -64t78 -102t27 -136q0 -91 -40 -161.5t-120 -105.5q101 -37 152 -111t51 -177q0 -197 -120.5 -298.5t-355.5 -101.5h-580zM391 863v-341h325q209 0 209 182q0 159 -214 159h-320zM391 1359v-281h306q199 0 199 150q0 131 -210 131
h-295z" />
    <glyph glyph-name="C" unicode="C" horiz-adv-x="1287" 
d="M1219 748q-12 -111 -57 -200t-117 -152t-168 -97t-211 -34q-135 0 -244 47t-185.5 133.5t-117.5 210t-41 276.5q0 156 41 282t117.5 215t185.5 137t244 48q112 0 207.5 -32t168 -91.5t118.5 -144t59 -189.5h-268q-7 51 -30 93t-60 71t-86 45t-107 16q-74 0 -133 -30.5
t-100 -88.5t-62.5 -141t-21.5 -188q0 -102 21.5 -183.5t62.5 -137.5t100 -86t133 -30q59 0 108 17.5t86 50t59.5 79t29.5 104.5h268z" />
    <glyph glyph-name="D" unicode="D" horiz-adv-x="1287" 
d="M136 300v1279h547q264 0 401 -155t137 -453q0 -329 -142.5 -500t-417.5 -171h-525zM403 520h225q326 0 326 440q0 399 -304 399h-247v-839z" />
    <glyph glyph-name="E" unicode="E" horiz-adv-x="1188" 
d="M136 300v1279h941v-227h-674v-272h625v-220h-625v-333h704v-227h-971z" />
    <glyph glyph-name="F" unicode="F" 
d="M136 300v1279h910v-227h-643v-291h560v-220h-560v-541h-267z" />
    <glyph glyph-name="G" unicode="G" horiz-adv-x="1386" 
d="M686 265q-140 0 -252.5 47t-191.5 134t-121.5 210t-42.5 276q0 156 44.5 282.5t126.5 215t199 136.5t262 48q115 0 212 -30t170 -86t119 -136t59 -180h-268q-5 42 -30.5 80t-64 67t-86 46t-97.5 17q-86 0 -155 -31t-117 -89.5t-73.5 -143t-25.5 -191.5q0 -218 93 -331.5
t277 -113.5q120 0 199.5 71.5t112.5 204.5v3h-301v220h536v-690h-178l-26 165l-16 -21q-135 -180 -364 -180z" />
    <glyph glyph-name="H" unicode="H" horiz-adv-x="1287" 
d="M126 300v1279h267v-479h500v479h268v-1279h-268v579h-500v-579h-267z" />
    <glyph glyph-name="I" unicode="I" horiz-adv-x="495" 
d="M114 300v1279h267v-1279h-267z" />
    <glyph glyph-name="J" unicode="J" horiz-adv-x="991" 
d="M596 1579h267v-920q0 -196 -104 -295t-308 -99q-210 0 -311.5 102.5t-101.5 316.5q0 8 0.5 14.5t0.5 14.5v77h254v-77v-18q0 -108 37 -159.5t118 -51.5q79 0 113.5 41t34.5 134v920z" />
    <glyph glyph-name="K" unicode="K" horiz-adv-x="1287" 
d="M155 300v1279h267v-530l490 530h341l-511 -523l545 -756h-350l-385 563l-130 -133v-430h-267z" />
    <glyph glyph-name="L" unicode="L" 
d="M136 300v1279h267v-1052h636v-227h-903z" />
    <glyph glyph-name="M" unicode="M" horiz-adv-x="1484" 
d="M372 300h-249v1279h391l233 -1014l230 1014h386v-1279h-249v1075l-240 -1075h-262l-240 1099v-1099z" />
    <glyph glyph-name="N" unicode="N" horiz-adv-x="1287" 
d="M372 300h-249v1279h280l513 -897v897h250v-1279h-266l-528 921v-921z" />
    <glyph glyph-name="O" unicode="O" horiz-adv-x="1386" 
d="M693 265q-141 0 -254.5 47t-194 133.5t-123.5 210t-43 276.5q0 156 43 282.5t123.5 215t194 136.5t254.5 48t255 -48t194 -137t123 -215t43 -282q0 -153 -43 -276.5t-123.5 -210t-194 -133.5t-254.5 -47zM693 492q82 0 146.5 30.5t109.5 87.5t68.5 139t23.5 185
q0 105 -23.5 189t-68.5 142.5t-109.5 90t-146.5 31.5t-146.5 -31t-109.5 -89.5t-68.5 -142.5t-23.5 -190q0 -104 23.5 -186t68.5 -139t109.5 -87t146.5 -30z" />
    <glyph glyph-name="P" unicode="P" horiz-adv-x="1188" 
d="M136 300v1279h535q220 0 333 -102t113 -298q0 -208 -113 -315t-333 -107h-80q-53 0 -99.5 -0.5t-88.5 -1.5v-455h-267zM403 977h223q224 0 224 199q0 183 -224 183h-223v-382z" />
    <glyph glyph-name="Q" unicode="Q" horiz-adv-x="1386" 
d="M1176 207l-153 142q-137 -84 -330 -84q-141 0 -254.5 47t-194 133.5t-123.5 210t-43 276.5q0 156 43 282.5t123.5 215t194 136.5t254.5 48t255 -48t194 -137t123 -215t43 -282q0 -278 -135 -450l139 -131zM705 642l135 143l140 -127q61 106 61 276q0 105 -23.5 189
t-68.5 142.5t-109.5 90t-146.5 31.5t-146.5 -31t-109.5 -89.5t-68.5 -142.5t-23.5 -190t24 -188.5t70 -138.5t111.5 -85.5t149.5 -29.5q75 0 136 29z" />
    <glyph glyph-name="R" unicode="R" horiz-adv-x="1287" 
d="M136 300v1279h644q90 0 165 -25.5t129 -72t83.5 -112.5t29.5 -146q0 -118 -50 -193.5t-150 -114.5q151 -57 157 -240l6 -210q1 -30 3.5 -51.5t8.5 -36t17 -24.5t28 -18v-34h-295q-5 10 -9.5 33t-8.5 53.5t-6 67t-3 73.5l-2 118q-1 43 -13 73.5t-38 49.5t-66 27.5t-97 8.5
h-266v-505h-267zM403 1020h310q207 0 207 170q0 169 -197 169h-320v-339z" />
    <glyph glyph-name="S" unicode="S" horiz-adv-x="1188" 
d="M829 1195q-3 46 -24 83t-56 62.5t-83.5 39.5t-106.5 14q-103 0 -160 -44.5t-57 -125.5q0 -29 11.5 -49.5t45 -38t94.5 -35.5t160 -40q135 -30 225 -63t144 -78.5t76.5 -109t22.5 -153.5t-37 -162.5t-106 -123.5t-166 -78.5t-217 -27.5q-122 0 -217.5 28.5t-162 84
t-104 135.5t-41.5 184h257q4 -103 73.5 -157.5t194.5 -54.5q129 0 200.5 41.5t71.5 114.5q0 35 -9.5 60t-38 44.5t-81.5 36t-139 36.5q-145 32 -242.5 65.5t-157 77.5t-84.5 103.5t-25 144.5q0 93 35.5 168t100.5 127.5t157.5 81t206.5 28.5q106 0 194.5 -29.5t154 -84.5
t104 -132t46.5 -173h-260z" />
    <glyph glyph-name="T" unicode="T" 
d="M412 300v1052h-387v227h1040v-227h-386v-1052h-267z" />
    <glyph glyph-name="U" unicode="U" horiz-adv-x="1287" 
d="M1161 782q0 -138 -29 -236t-91.5 -160.5t-160 -91.5t-235.5 -29q-263 0 -390 126.5t-127 390.5v797h267v-806q0 -275 250 -275q67 0 114.5 15.5t77 48.5t43 85t13.5 126v806h268v-797z" />
    <glyph glyph-name="V" unicode="V" horiz-adv-x="1188" 
d="M34 1579h284l281 -977l280 977h275l-433 -1279h-254z" />
    <glyph glyph-name="W" unicode="W" horiz-adv-x="1682" 
d="M385 300l-356 1279h278l213 -936l183 936h284l186 -928l212 928h270l-356 -1279h-254l-205 1007l-201 -1007h-254z" />
    <glyph glyph-name="X" unicode="X" horiz-adv-x="1188" 
d="M25 300l414 647l-386 632h316l225 -413l233 413h308l-389 -612l417 -667h-319l-251 440l-252 -440h-316z" />
    <glyph glyph-name="Y" unicode="Y" horiz-adv-x="1188" 
d="M473 781l-446 798h318l266 -555l249 555h303l-423 -793v-486h-267v481z" />
    <glyph glyph-name="Z" unicode="Z" 
d="M44 524l663 828h-641v227h978v-211l-675 -841h673v-227h-998v224z" />
    <glyph glyph-name="bracketleft" unicode="[" horiz-adv-x="593" 
d="M112 -52v1640h439v-172h-216v-1297h216v-171h-439z" />
    <glyph glyph-name="backslash" unicode="\" horiz-adv-x="559" 
d="M499 -231l-180 160l-254 1373l165 -141z" />
    <glyph glyph-name="bracketright" unicode="]" horiz-adv-x="593" 
d="M481 -52h-438v171h215v1297h-215v172h438v-1640z" />
    <glyph glyph-name="asciicircum" unicode="^" horiz-adv-x="960" 
d="M923 691h-92l-350 586l-350 -586h-94l431 717h30z" />
    <glyph glyph-name="underscore" unicode="_" horiz-adv-x="991" 
d="M0 77v92h991v-92h-991z" />
    <glyph glyph-name="grave" unicode="`" horiz-adv-x="593" 
d="M221 1377l-261 258h273l168 -258h-180z" />
    <glyph glyph-name="a" unicode="a" horiz-adv-x="991" 
d="M343 276q-66 0 -119.5 19.5t-92 55.5t-59.5 86t-21 112q0 129 72 207t211 98l165 23q28 4 54 9.5t45.5 16t31.5 27t12 43.5q0 49 -43.5 74.5t-120.5 25.5q-72 0 -112 -34.5t-42 -98.5h-240q17 332 422 332q87 0 157.5 -19t120 -55t76.5 -87.5t27 -116.5v-529
q0 -32 2 -53.5t8 -36t16 -23.5t27 -16v-35h-270q-8 29 -14 56.5t-8 55.5l-1 2q-117 -139 -304 -139zM643 650v108q-22 -11 -51 -21.5t-64 -17.5l-92 -17q-133 -24 -133 -127q0 -57 30.5 -89t84.5 -32q43 0 83.5 12t72 36t50.5 61t19 87z" />
    <glyph glyph-name="b" unicode="b" 
d="M109 1579h249v-456l6 7q100 142 266 142q90 0 163.5 -35.5t126 -99t81 -152.5t28.5 -197q0 -114 -28.5 -208t-81 -161.5t-126 -105t-163.5 -37.5q-84 -1 -149.5 32.5t-116.5 99.5l-11 14v-122h-244v1279zM559 481q100 0 157 74.5t57 209.5q0 69 -14.5 123t-42.5 91.5
t-67.5 57t-89.5 19.5q-100 0 -156.5 -79t-56.5 -220q0 -64 14.5 -115t42 -87t67 -55t89.5 -19z" />
    <glyph glyph-name="c" unicode="c" horiz-adv-x="991" 
d="M934 651q-10 -89 -43.5 -158.5t-88.5 -117.5t-128.5 -73.5t-163.5 -25.5q-108 0 -191.5 32.5t-140.5 95t-87 154t-30 210.5q0 115 31.5 208t90 159t141.5 101.5t186 35.5q91 0 167.5 -26.5t132 -75t88 -116t36.5 -148.5h-255q-2 35 -14.5 64t-35 49.5t-53 32t-66.5 11.5
q-94 0 -143 -75t-49 -220q0 -142 49 -215t143 -73q69 0 115 47t54 124h255z" />
    <glyph glyph-name="d" unicode="d" 
d="M464 276q-91 0 -165 37t-127 104.5t-82 162t-29 208.5q0 108 29 197.5t81.5 153t126.5 98.5t164 35q162 0 259 -136l11 -14v457h249v-1279h-242v121l-4 -6q-103 -139 -271 -139zM531 1056q-100 0 -156.5 -76.5t-56.5 -214.5q0 -135 56 -209.5t156 -74.5q102 0 158 78.5
t56 220.5q0 130 -56.5 203t-156.5 73z" />
    <glyph glyph-name="e" unicode="e" horiz-adv-x="991" 
d="M491 276q-108 0 -192 34t-141 99t-87 160.5t-30 218.5q0 113 31 203t89 152.5t141.5 95.5t188.5 33q111 0 195 -34.5t140.5 -100.5t85.5 -162t29 -220q0 -24 -4 -43h-645q5 -64 20 -109t42 -73.5t67 -42t95 -13.5q27 0 54 8.5t49.5 23.5t38.5 35t21 43h254
q-17 -72 -55 -129.5t-95 -97t-131 -60.5t-161 -21zM681 871q-18 196 -194 196q-157 0 -192 -196h386z" />
    <glyph glyph-name="f" unicode="f" horiz-adv-x="593" 
d="M405 1072v-772h-249v772h-139v175h139v79q0 144 78 207t236 63q54 0 96 -6v-199h-79q-25 0 -41 -4t-25 -15.5t-12.5 -31.5t-3.5 -51v-42h161v-175h-161z" />
    <glyph glyph-name="g" unicode="g" 
d="M543 103q105 0 151 51t46 169v116l-20 -30q-83 -114 -237 -114q-93 0 -169 35t-130 98.5t-83.5 152.5t-29.5 197q0 110 29 201t81.5 156t126.5 101t164 36q191 0 278 -164v139h235v-897q0 -224 -111 -330.5t-346 -106.5q-96 0 -173.5 19t-133 55.5t-87 89t-35.5 119.5
h272q3 -48 44 -70.5t128 -22.5zM535 1056q-97 0 -152 -74.5t-55 -206.5q0 -131 54.5 -203t151.5 -72q49 0 88 19t66 55t41 87.5t14 116.5q0 132 -55.5 205t-152.5 73z" />
    <glyph glyph-name="h" unicode="h" 
d="M116 300v1279h249v-453l20 28q93 118 268 118q75 0 134 -23t100.5 -66t63.5 -105.5t22 -140.5v-637h-250v592q0 172 -154 172q-99 0 -151.5 -59t-52.5 -171v-534h-249z" />
    <glyph glyph-name="i" unicode="i" horiz-adv-x="495" 
d="M125 300v947h250v-947h-250zM123 1588h252v-231h-252v231z" />
    <glyph glyph-name="j" unicode="j" horiz-adv-x="495" 
d="M121 1247h250v-1051q0 -77 -15.5 -130t-50.5 -85.5t-92 -47t-140 -14.5l-68 1v199l31 -1q50 -2 67.5 16t17.5 62v1051zM119 1588h254v-231h-254v231z" />
    <glyph glyph-name="k" unicode="k" horiz-adv-x="991" 
d="M123 300v1279h249v-691l312 359h308l-342 -359l350 -588h-296l-228 407l-104 -109v-298h-249z" />
    <glyph glyph-name="l" unicode="l" horiz-adv-x="495" 
d="M123 300v1279h249v-1279h-249z" />
    <glyph glyph-name="m" unicode="m" horiz-adv-x="1584" 
d="M114 300v947h237v-153q36 89 108 133.5t174 44.5q83 0 151.5 -40t103.5 -116l31 50q76 106 225 106q77 0 138 -24t103 -68.5t64.5 -108.5t22.5 -144v-627h-250v556q0 106 -34.5 157t-107.5 51q-79 0 -120 -48t-41 -139v-577h-250v597q0 167 -149 167q-75 0 -115.5 -48
t-40.5 -139v-577h-250z" />
    <glyph glyph-name="n" unicode="n" 
d="M116 300v947h237v-141q49 84 121.5 125t178.5 41q75 0 134 -23t100.5 -66t63.5 -105.5t22 -140.5v-637h-250v592q0 172 -154 172q-99 0 -151.5 -59t-52.5 -171v-534h-249z" />
    <glyph glyph-name="o" unicode="o" 
d="M545 276q-111 0 -200.5 34.5t-152.5 99t-97 155t-34 203.5q0 115 34 208t97 159t152.5 101.5t200.5 35.5t200.5 -36t152.5 -102t97 -159t34 -207q0 -112 -34 -203t-97 -155t-152.5 -99t-200.5 -35zM545 484q112 0 170 73t58 214q0 144 -58 218t-170 74t-169.5 -74
t-57.5 -218q0 -141 57.5 -214t169.5 -73z" />
    <glyph glyph-name="p" unicode="p" 
d="M110 1247h238v-141l17 24q100 142 266 142q90 0 163.5 -35t125.5 -99t80.5 -153t28.5 -197q0 -114 -28.5 -208.5t-80.5 -162t-125.5 -104.5t-163.5 -37q-166 0 -266 132l-5 7v-486h-250v1318zM559 481q100 0 157 74.5t57 209.5q0 138 -56.5 214.5t-156.5 76.5t-156 -79
t-56 -220q0 -131 55.5 -203.5t155.5 -72.5z" />
    <glyph glyph-name="q" unicode="q" 
d="M465 276q-91 0 -165.5 35t-127.5 98t-82 152t-29 197q0 115 30 210t85 162.5t132 104.5t170 37q85 0 158.5 -45t116.5 -136v156h230v-1318h-250v482q-51 -69 -117.5 -102t-150.5 -33zM532 1056q-102 0 -158 -76.5t-56 -214.5q0 -135 56.5 -209.5t156.5 -74.5
q102 0 158.5 78.5t56.5 220.5q0 130 -57 203t-157 73z" />
    <glyph glyph-name="r" unicode="r" horiz-adv-x="693" 
d="M114 300v947h237v-170q46 97 111 147t146 48l57 -1v-255q-33 3 -75 3q-226 0 -226 -227v-492h-250z" />
    <glyph glyph-name="s" unicode="s" horiz-adv-x="991" 
d="M652 963q0 55 -45.5 88t-120.5 33q-72 0 -112.5 -24.5t-40.5 -69.5q0 -16 10.5 -29t35 -25t64 -23.5t97.5 -24.5q232 -51 307 -112q78 -62 78 -192q0 -69 -29.5 -126t-83.5 -97.5t-129.5 -62.5t-167.5 -22q-220 0 -337 83t-125 244h254q3 -66 57.5 -102.5t150.5 -36.5
q75 0 117 25.5t42 71.5q0 16 -9.5 29.5t-31 25t-56.5 22t-87 22.5q-240 54 -321 114q-81 58 -81 184q0 70 28 128t78 99.5t120.5 64t154.5 22.5q96 0 175 -22.5t135.5 -63t88 -97.5t31.5 -126h-247z" />
    <glyph glyph-name="t" unicode="t" horiz-adv-x="593" 
d="M551 295q-32 -2 -70 -3.5t-84 -1.5q-66 0 -113 11.5t-77 35.5t-44 62.5t-14 92.5v580h-132v175h132v254h249v-254h153v-175h-153v-538q0 -17 4.5 -27.5t15.5 -16.5t31 -8t50 -2h52v-185z" />
    <glyph glyph-name="u" unicode="u" 
d="M367 1247v-593q0 -88 37 -129t115 -41q99 0 150.5 58.5t51.5 170.5v534h250v-947h-238v142q-88 -166 -298 -166q-75 0 -134 22.5t-100 65.5t-62.5 105t-21.5 140v638h250z" />
    <glyph glyph-name="v" unicode="v" horiz-adv-x="991" 
d="M23 1247h276l202 -706l204 706h262l-341 -947h-261z" />
    <glyph glyph-name="w" unicode="w" horiz-adv-x="1386" 
d="M292 300l-275 947h265l151 -696l142 696h250l140 -697l154 697h251l-274 -947h-255l-145 705l-149 -705h-255z" />
    <glyph glyph-name="x" unicode="x" horiz-adv-x="991" 
d="M27 300l322 484l-309 463h301l159 -280l159 280h292l-308 -468l321 -479h-307l-165 289l-164 -289h-301z" />
    <glyph glyph-name="y" unicode="y" horiz-adv-x="991" 
d="M960 1247l-339 -967q-42 -120 -76.5 -194.5t-63.5 -105.5q-58 -61 -208 -61l-119 3v200q8 -4 48 -4q44 0 72 5.5t45.5 21t29 45t22.5 77.5l-354 980h276l206 -703l200 703h261z" />
    <glyph glyph-name="z" unicode="z" horiz-adv-x="891" 
d="M36 494l485 555h-450v198h762v-205l-473 -538h495v-204h-819v194z" />
    <glyph glyph-name="braceleft" unicode="{" horiz-adv-x="693" 
d="M651 -51q-36 -3 -70 -3q-171 0 -250 69.5t-79 217.5v231q0 140 -26 175t-141 50v158q115 15 141 50t26 175v231q0 148 81 217.5t254 69.5q15 0 31 -0.5t33 -1.5v-160q-11 1 -21 1h-20q-47 0 -74 -5.5t-41 -23.5t-18 -53.5t-4 -95.5v-232q0 -54 -11 -94t-34.5 -69.5
t-59 -51t-84.5 -37.5q49 -14 84.5 -35t58.5 -51t34.5 -70.5t11.5 -93.5v-232q0 -59 4 -94.5t17.5 -54t39.5 -24t70 -5.5q11 0 22.5 0.5t24.5 1.5v-160z" />
    <glyph glyph-name="bar" unicode="|" horiz-adv-x="499" 
d="M150 -145v1781h199v-1781h-199z" />
    <glyph glyph-name="braceright" unicode="}" horiz-adv-x="693" 
d="M43 -51v160q13 -1 24 -1.5t22 -0.5q44 0 70 5.5t39.5 24t17.5 54t4 94.5v232q0 53 11 93.5t34.5 70.5t59 51t84.5 35q-50 16 -85.5 37.5t-58.5 51.5t-34 70t-11 93v232q0 60 -4 95t-18 53.5t-41 24t-73 5.5h-20t-21 -1v160q17 1 33 1.5t31 0.5q173 0 253.5 -69.5
t80.5 -217.5v-231q0 -140 26 -175t141 -50v-158q-115 -15 -141 -50t-26 -175v-231q0 -147 -79 -216.5t-253 -69.5h-33q-16 0 -33 2z" />
    <glyph glyph-name="asciitilde" unicode="~" horiz-adv-x="1041" 
d="M109 748q15 36 38 64.5t52 49t62.5 31.5t69.5 11q22 0 45.5 -3.5t50.5 -12t59 -21.5t72 -31q54 -25 95.5 -40.5t58.5 -15.5q42 0 78.5 31.5t76.5 100.5l65 -159q-20 -36 -45 -64.5t-54 -48.5t-60.5 -31t-62.5 -11q-24 0 -48 4t-51 13.5t-58 24.5t-70 38q-36 20 -79 31.5
t-81 11.5q-21 0 -43 -10.5t-42 -28t-37 -41.5t-27 -51z" />
    <glyph glyph-name="Ccedilla" unicode="&#xc7;" horiz-adv-x="1479" 
d="M1206 514l194 -49q-61 -239 -219.5 -364.5t-387.5 -125.5q-237 0 -385.5 96.5t-226 279.5t-77.5 393q0 229 87.5 399.5t249 259t355.5 88.5q220 0 370 -112t209 -315l-191 -45q-51 160 -148 233t-244 73q-169 0 -282.5 -81t-159.5 -217.5t-46 -281.5q0 -187 54.5 -326.5
t169.5 -208.5t249 -69q163 0 276 94t153 279zM622 -154l52 177h134l-33 -107q85 -10 128 -52.5t43 -94.5q0 -75 -72 -132.5t-217 -57.5q-82 0 -144 12l11 117q64 -4 94 -4q94 0 132 26q29 20 29 49q0 18 -11.5 32t-42.5 24t-103 11z" />
    <glyph glyph-name="ccedilla" unicode="&#xe7;" horiz-adv-x="1024" 
d="M828 389l177 -23q-29 -183 -148.5 -286.5t-293.5 -103.5q-218 0 -350.5 142.5t-132.5 408.5q0 172 57 301t173.5 193.5t253.5 64.5q173 0 283 -87.5t141 -248.5l-175 -27q-25 107 -88.5 161t-153.5 54q-136 0 -221 -97.5t-85 -308.5q0 -214 82 -311t214 -97q106 0 177 65
t90 200zM411 -134l52 177h134l-33 -107q85 -10 128 -52.5t43 -94.5q0 -75 -72 -132.5t-217 -57.5q-82 0 -144 12l11 117q64 -4 94 -4q94 0 132 26q29 20 29 49q0 18 -11.5 32t-42.5 24t-103 11z" />
    <glyph glyph-name="ecircumflex" unicode="&#xea;" horiz-adv-x="1139" 
d="M862 342l186 -23q-44 -163 -163 -253t-304 -90q-233 0 -369.5 143.5t-136.5 402.5q0 268 138 416t358 148q213 0 348 -145t135 -408q0 -16 -1 -48h-792q10 -175 99 -268t222 -93q99 0 169 52t111 166zM271 633h593q-12 134 -68 201q-86 104 -223 104q-124 0 -208.5 -83
t-93.5 -222zM567 1364l-113 -170h-206l216 280h192l225 -280h-204z" />
    <glyph glyph-name="icircumflex" unicode="&#xee;" horiz-adv-x="569" 
d="M188 0v1062h180v-1062h-180zM292 1364l-113 -170h-206l216 280h192l225 -280h-204z" />
    <glyph glyph-name="otilde" unicode="&#xf5;" horiz-adv-x="1139" 
d="M68 531q0 295 164 437q137 118 334 118q219 0 358 -143.5t139 -396.5q0 -205 -61.5 -322.5t-179 -182.5t-256.5 -65q-223 0 -360.5 143t-137.5 412zM253 531q0 -204 89 -305.5t224 -101.5q134 0 223 102t89 311q0 197 -89.5 298.5t-222.5 101.5q-135 0 -224 -101
t-89 -305zM231 1219q-1 104 57 166q57 62 146 62q62 0 169 -54q59 -30 94 -30q32 0 49 17.5t24 69.5h130q-3 -114 -57.5 -171t-138.5 -57q-63 0 -166 56q-67 36 -98 36q-34 0 -55 -24q-22 -24 -21 -71h-133z" />
    <glyph glyph-name="ucircumflex" unicode="&#xfb;" horiz-adv-x="1139" 
d="M831 0v156q-124 -180 -337 -180q-94 0 -175.5 36t-121 90.5t-55.5 133.5q-11 53 -11 168v658h180v-589q0 -141 11 -190q17 -71 72 -111.5t136 -40.5t152 41.5t100.5 113t29.5 207.5v569h180v-1062h-161zM564 1364l-113 -170h-206l216 280h192l225 -280h-204z" />
    <glyph glyph-name="cent" unicode="&#xa2;" horiz-adv-x="1139" 
d="M744 894l-222 -766q33 -9 61 -9q104 0 179.5 71t92.5 199l179 -20q-33 -185 -156.5 -291t-291.5 -106q-49 0 -103 14l-118 -395l-112 32l115 398q-115 55 -188 183.5t-73 321.5q0 178 58.5 305.5t175 191.5t237.5 64q36 0 100 -8l113 387l110 -32l-112 -387
q99 -43 152 -115.5t74 -181.5l-175 -27q-26 112 -96 171zM638 940q-32 3 -50 3q-82 0 -153.5 -45.5t-107 -141t-35.5 -221.5q0 -132 32 -223t91 -135z" />
    <glyph glyph-name="sterling" unicode="&#xa3;" horiz-adv-x="1139" 
d="M396 809h315v-148h-284q19 -44 19 -88q0 -87 -41.5 -184t-136.5 -198q79 22 144 22q83 0 187 -25q172 -41 233 -41q74 0 192 56l58 -165q-92 -39 -142.5 -51t-100.5 -12q-42 0 -85 8q-27 5 -129.5 36.5t-132.5 37.5q-47 8 -94 8q-72 0 -153.5 -25t-148.5 -68l-69 173
q96 53 163 151.5t67 240.5q0 61 -17 124h-196v148h154q-33 112 -42 163.5t-9 100.5q0 208 154 325q124 93 300 93q181 0 298.5 -99.5t144.5 -279.5l-179 -27q-15 120 -89.5 189t-178.5 69q-111 0 -184.5 -71.5t-73.5 -172.5q0 -111 57 -290z" />
    <glyph glyph-name="section" unicode="&#xa7;" horiz-adv-x="1139" 
d="M143 -70l181 26q28 -130 89 -182.5t166 -52.5q102 0 159.5 52t57.5 122q0 51 -36 94q-62 75 -340 245q-148 91 -206.5 142.5t-95.5 121.5t-37 146q0 96 60 174t165 109q-71 68 -100 125.5t-29 122.5q0 128 100 222t265 94q187 0 292 -89t126 -258l-187 -19
q-21 122 -73.5 170t-141.5 48q-92 0 -148.5 -49.5t-56.5 -109.5q0 -52 36 -96q56 -68 306 -220q157 -96 212 -141q71 -60 104.5 -124t33.5 -139q0 -113 -73 -193q-42 -46 -154 -93q80 -61 119.5 -131t39.5 -150q0 -88 -50 -166.5t-144 -120t-203 -41.5q-191 0 -303 95.5
t-134 265.5zM728 244q74 38 110.5 88.5t36.5 98.5q0 57 -52 120q-53 63 -225 169q-137 84 -204 138q-81 -46 -115.5 -92t-34.5 -102q0 -63 46 -120t207 -152q134 -79 231 -148z" />
    <glyph glyph-name="bullet" unicode="&#x2022;" horiz-adv-x="931" 
d="M817 662q0 -145 -103.5 -248t-248.5 -103t-248 103t-103 248t103 248t248 103t248.5 -103t103.5 -248z" />
    <glyph glyph-name="paragraph" unicode="&#xb6;" horiz-adv-x="1100" 
d="M405 -407v1045q-187 10 -295.5 121.5t-108.5 284.5q0 193 120.5 307.5t352.5 114.5h633v-173h-144v-1700h-170v1700h-223v-1700h-165z" />
    <glyph glyph-name="registered" unicode="&#xae;" horiz-adv-x="1509" 
d="M758 1491q190 0 371 -97.5t282 -279t101 -378.5q0 -195 -99.5 -375t-279 -279.5t-375.5 -99.5t-375.5 99.5t-279.5 279.5t-100 375q0 197 101.5 378.5t282.5 279t371 97.5zM758 1366q-159 0 -309.5 -81.5t-235.5 -233t-85 -315.5q0 -163 83.5 -312.5t233.5 -233
t313 -83.5t313 83.5t233 233t83 312.5q0 164 -84.5 315.5t-235.5 233t-309 81.5zM427 319v812h279q143 0 207 -22.5t102 -78.5t38 -119q0 -89 -63.5 -155t-168.5 -74q43 -18 69 -43q49 -48 120 -161l99 -159h-160l-72 128q-85 151 -137 189q-36 28 -105 28h-77v-345h-131z
M558 776h159q114 0 155.5 34t41.5 90q0 36 -20 64.5t-55.5 42.5t-131.5 14h-149v-245z" />
    <glyph glyph-name="copyright" unicode="&#xa9;" horiz-adv-x="1313" 
d="M657 1616q290 0 483 -193q194 -192 194 -484q0 -290 -193 -483t-484 -193q-292 0 -484 193t-192 483q0 292 192 484q193 193 484 193zM1139 939q0 110 -36.5 204.5t-101 164t-153 109t-191.5 39.5t-191 -39.5t-152.5 -109t-101 -164t-36.5 -204.5t37 -204t101.5 -163
t152.5 -108.5t190 -39.5q103 0 191.5 39.5t153 109t101 163.5t36.5 203zM1002 837q-13 -65 -41.5 -117t-70 -89t-94.5 -57t-115 -20q-83 0 -151 27.5t-116.5 77.5t-75 120.5t-26.5 156.5q0 89 26 161t74.5 123t116.5 78.5t152 27.5q65 0 120.5 -19.5t97.5 -55t68.5 -86.5
t34.5 -114h-159q-7 55 -50 87t-112 32q-88 0 -136.5 -62t-48.5 -171q0 -53 13 -95t37 -71t58.5 -45t76.5 -16q64 0 107.5 33.5t54.5 93.5h159z" />
    <glyph glyph-name="trademark" unicode="&#x2122;" horiz-adv-x="2048" 
d="M489 651v694h-264v121h666v-121h-266v-694h-136zM982 651v815h200l206 -651l199 651h196v-815h-124v684l-210 -684h-123l-219 694v-694h-125z" />
    <glyph glyph-name="acute" unicode="&#xb4;" horiz-adv-x="682" 
d="M222 1194l133 280h236l-220 -280h-149z" />
    <glyph glyph-name="plusminus" unicode="&#xb1;" horiz-adv-x="1124" 
d="M477 260v403h-399v167h399v399h170v-399h399v-167h-399v-403h-170zM1046 0h-968v168h968v-168z" />
    <glyph glyph-name="lessequal" unicode="&#x2264;" horiz-adv-x="1124" 
d="M77 762v168l971 410v-180l-770 -315l770 -319v-179zM1046 106h-968v167h968v-167z" />
    <glyph glyph-name="greaterequal" unicode="&#x2265;" horiz-adv-x="1124" 
d="M1048 762l-971 -415v179l769 319l-769 315v180l971 -410v-168zM1046 106h-968v167h968v-167z" />
    <glyph glyph-name="yen" unicode="&#xa5;" horiz-adv-x="1139" 
d="M477 0v325h-415v139h415v143h-415v148h341l-406 711h200l290 -516q49 -88 76 -154q23 53 82 163l274 507h214l-405 -711h341v-148h-412v-143h412v-139h-412v-325h-180z" />
    <glyph glyph-name="guillemotleft" unicode="&#xab;" horiz-adv-x="888" 
d="M776 956q-134 -290 -134 -481q0 -194 134 -473h-162q-168 242 -168 475q0 250 172 479h158zM442 956q-135 -284 -135 -481q0 -199 135 -473h-164q-166 244 -166 475q0 248 170 479h160z" />
    <glyph glyph-name="guillemotright" unicode="&#xbb;" horiz-adv-x="888" 
d="M776 477q0 -231 -166 -475h-164q135 274 135 473q0 197 -135 481h160q170 -231 170 -479zM442 477q0 -233 -168 -475h-162q135 274 135 473q0 197 -135 481h158q172 -229 172 -479z" />
    <glyph glyph-name="endash" unicode="&#x2013;" horiz-adv-x="1139" 
d="M-4 458v145h1139v-145h-1139z" />
    <glyph glyph-name="emdash" unicode="&#x2014;" horiz-adv-x="2048" 
d="M0 458v145h2048v-145h-2048z" />
    <glyph glyph-name="quotedblleft" unicode="&#x201c;" horiz-adv-x="682" 
d="M276 1220v-209h-193v165q0 134 32 194q42 80 133 121l44 -70q-55 -23 -81 -68.5t-29 -132.5h94zM586 1220v-209h-193v165q0 134 32 194q42 80 133 121l44 -70q-55 -23 -81 -68.5t-29 -132.5h94z" />
    <glyph glyph-name="quotedblright" unicode="&#x201d;" horiz-adv-x="682" 
d="M87 1272v209h193v-165q0 -134 -31 -193q-43 -81 -134 -122l-44 71q54 22 80.5 69.5t29.5 130.5h-94zM397 1272v209h193v-165q0 -134 -31 -193q-43 -81 -134 -122l-44 71q54 22 80.5 69.5t29.5 130.5h-94z" />
    <glyph glyph-name="quoteleft" unicode="&#x2018;" horiz-adv-x="455" 
d="M321 1220v-209h-193v165q0 134 32 194q42 80 133 121l44 -70q-55 -23 -81 -68.5t-29 -132.5h94z" />
    <glyph glyph-name="quoteright" unicode="&#x2019;" horiz-adv-x="455" 
d="M124 1272v209h193v-165q0 -134 -31 -193q-43 -81 -134 -122l-44 71q54 22 80.5 69.5t29.5 130.5h-94z" />
    <glyph glyph-name="divide" unicode="&#xf7;" horiz-adv-x="1041" 
d="M71 855h898v-207h-898v207zM520 1281q33 0 61.5 -12.5t50.5 -34t34.5 -50t12.5 -61.5t-12.5 -61.5t-34.5 -50t-50.5 -34t-61.5 -12.5t-61.5 12.5t-50 34t-34 50t-12.5 61.5t12.5 61.5t34 50t50 34t61.5 12.5zM520 538q33 0 61.5 -12.5t50.5 -34t34.5 -50t12.5 -61.5
t-12.5 -61.5t-34.5 -50t-50.5 -34t-61.5 -12.5t-61.5 12.5t-50 34t-34 50t-12.5 61.5t12.5 61.5t34 50t50 34t61.5 12.5z" />
    <glyph glyph-name="fraction" unicode="&#x2044;" horiz-adv-x="559" 
d="M230 -90l-165 -141l254 1373l180 160z" />
    <glyph glyph-name="Euro" unicode="&#x20ac;" horiz-adv-x="1139" 
d="M790 1325q-168 0 -282 -81q-68 -48 -123 -136q-56 -91 -66 -173h682l-27 -134h-671q-1 -21 -1 -40q0 -77 1 -92h644l-28 -134h-595q42 -229 202 -325q115 -69 249 -69q187 0 292 98v-206q-125 -58 -276 -58q-452 0 -611 376q-32 76 -55 184h-153l28 134h105q-3 42 -3 91
q0 20 1 41h-131l28 134h116q62 326 323 468q161 88 355 88q186 0 313 -81l-40 -186q-122 101 -277 101z" />
    <glyph glyph-name="guilsinglleft" unicode="&#x2039;" horiz-adv-x="512" 
d="M457 966l-228 -382l222 -380v-75l-383 455l389 457v-75z" />
    <glyph glyph-name="guilsinglright" unicode="&#x203a;" horiz-adv-x="512" 
d="M457 586l-393 -457v75l231 382l-222 381v77z" />
    <glyph glyph-name="periodcentered" unicode="&#x2219;" horiz-adv-x="569" 
d="M185 619v205h205v-205h-205z" />
    <glyph glyph-name="Ecircumflex" unicode="&#xca;" horiz-adv-x="1366" 
d="M162 0v1466h1060v-173h-866v-449h811v-172h-811v-499h900v-173h-1094zM707 1836l-113 -170h-206l216 280h192l225 -280h-204z" />
    <glyph glyph-name="Icircumflex" unicode="&#xce;" horiz-adv-x="569" 
d="M191 0v1466h194v-1466h-194zM287 1836l-113 -170h-206l216 280h192l225 -280h-204z" />
    <glyph glyph-name="Ucircumflex" unicode="&#xdb;" horiz-adv-x="1479" 
d="M1120 1466h194v-847q0 -221 -50 -351t-180.5 -211.5t-342.5 -81.5q-206 0 -337 71t-187 205.5t-56 367.5v847h194v-846q0 -191 35.5 -281.5t122 -139.5t211.5 -49q214 0 305 97t91 373v846zM736 1836l-113 -170h-206l216 280h192l225 -280h-204z" />
    <glyph glyph-name="brokenbar" unicode="&#xa6;" horiz-adv-x="532" 
d="M345 1491v-790h-157v790h157zM345 360v-791h-157v791h157z" />
    <glyph glyph-name="minus" unicode="&#x2212;" horiz-adv-x="1196" 
d="M1082 639h-968v168h968v-168z" />
    <glyph glyph-name="multiply" unicode="&#xd7;" horiz-adv-x="1196" 
d="M161 409l315 315l-314 314l122 122l314 -314l313 313l120 -121l-312 -313l314 -314l-122 -122l-314 314l-315 -315z" />
    <glyph glyph-name="Scedilla" unicode="&#x15e;" horiz-adv-x="1366" 
d="M92 471l183 16q13 -110 60.5 -180.5t147.5 -114t225 -43.5q111 0 196 33t126.5 90.5t41.5 125.5q0 69 -40 120.5t-132 86.5q-59 23 -261 71.5t-283 91.5q-105 55 -156.5 136.5t-51.5 182.5q0 111 63 207.5t184 146.5t269 50q163 0 287.5 -52.5t191.5 -154.5t72 -231
l-186 -14q-15 139 -101.5 210t-255.5 71q-176 0 -256.5 -64.5t-80.5 -155.5q0 -79 57 -130q56 -51 292.5 -104.5t324.5 -93.5q128 -59 189 -149.5t61 -208.5q0 -117 -67 -220.5t-192.5 -161t-282.5 -57.5q-199 0 -333.5 58t-211 174.5t-80.5 263.5zM555 -144l52 177h134
l-33 -107q85 -10 128 -52.5t43 -94.5q0 -75 -72 -132.5t-217 -57.5q-82 0 -144 12l11 117q64 -4 94 -4q94 0 132 26q29 20 29 49q0 18 -11.5 32t-42.5 24t-103 11z" />
    <glyph glyph-name="scedilla" unicode="&#x15f;" horiz-adv-x="1024" 
d="M63 317l178 28q15 -107 83.5 -164t191.5 -57q124 0 184 50.5t60 118.5q0 61 -53 96q-37 24 -184 61q-198 50 -274.5 86.5t-116 101t-39.5 142.5q0 71 32.5 131.5t88.5 100.5q42 31 114.5 52.5t155.5 21.5q125 0 219.5 -36t139.5 -97.5t62 -164.5l-176 -24
q-12 82 -69.5 128t-162.5 46q-124 0 -177 -41t-53 -96q0 -35 22 -63q22 -29 69 -48q27 -10 159 -46q191 -51 266.5 -83.5t118.5 -94.5t43 -154q0 -90 -52.5 -169.5t-151.5 -123t-224 -43.5q-207 0 -315.5 86t-138.5 255zM375 -134l52 177h134l-33 -107q85 -10 128 -52.5
t43 -94.5q0 -75 -72 -132.5t-217 -57.5q-82 0 -144 12l11 117q64 -4 94 -4q94 0 132 26q29 20 29 49q0 18 -11.5 32t-42.5 24t-103 11z" />
    <glyph glyph-name="middot" unicode="&#xb7;" horiz-adv-x="724" 
d="M482 832h-239v285h239v-285z" />
    <glyph glyph-name="H18533" unicode="&#x25cf;" horiz-adv-x="1237" 
d="M177 576q0 183 129 312t312 129q182 0 311 -129t129 -312q0 -182 -129 -311t-311 -129q-183 0 -312 129t-129 311z" />
    <glyph glyph-name="openbullet" unicode="&#x25e6;" horiz-adv-x="726" 
d="M363 928q104 0 177.5 -73.5t73.5 -177.5t-73.5 -177.5t-177.5 -73.5t-177.5 73.5t-73.5 177.5t73 177.5t178 73.5zM363 852q-73 0 -124 -51.5t-51 -123.5q0 -73 51.5 -124t123.5 -51t123.5 51t51.5 124q0 72 -51 123.5t-124 51.5z" />
    <glyph glyph-name="afii61352" unicode="&#x2116;" horiz-adv-x="2336" 
d="M1173 0h-222l-615 1284v-1284h-185v1489h281l556 -1179v1179h185v-1489zM2202 1030q0 -227 -117 -358.5t-303 -131.5q-193 0 -307 131.5t-114 358.5q0 233 117 361.5t304 128.5t303.5 -128.5t116.5 -361.5zM2071 176h-578v162h578v-162zM2022 1030q0 175 -64.5 257.5
t-175.5 82.5t-176 -82.5t-65 -257.5q0 -169 64 -254.5t177 -85.5t176.5 85.5t63.5 254.5z" />
    <glyph glyph-name="currency" unicode="&#xa4;" horiz-adv-x="1139" 
d="M213 961l-139 136l115 119l139 -139q106 72 237 72q132 0 237 -72l139 139l116 -119l-139 -136q71 -110 71 -235q0 -126 -71 -236l139 -136l-116 -119l-139 140q-105 -73 -237 -73q-131 0 -237 73l-139 -140l-115 119l139 136q-71 110 -71 236q0 125 71 235zM305 726
q0 -108 76 -184t183 -76t183 76t76 184q0 107 -75.5 183t-183.5 76q-107 0 -183 -76t-76 -183z" />
    <glyph glyph-name="afii57388" unicode="&#x60c;" horiz-adv-x="497" 
d="M399 443q-33 -6 -57 -20q-14 -9 -26.5 -17t-22.5 -18q-25 -23 -37 -45q-14 -29 -14 -51q0 -11 2 -20t6 -19q133 -6 133 -131q0 -129 -129 -129q-74 0 -117 57q-45 61 -39 156q6 51 25 100q18 49 53 90q18 21 38.5 38t45.5 34q45 30 104 47l33 -72h2z" />
    <glyph glyph-name="afii57403" unicode="&#x61b;" horiz-adv-x="497" 
d="M399 903q-33 -6 -57 -20q-14 -9 -26.5 -17t-22.5 -18q-25 -23 -37 -45q-14 -29 -14 -51q0 -11 2 -20t6 -19q133 -6 133 -131q0 -129 -129 -129q-74 0 -117 57q-45 61 -39 156q6 51 25 100q18 49 53 90q18 21 38.5 38t45.5 34q45 30 104 47l33 -72h2zM385 137
q0 -53 -39 -96q-41 -41 -98 -41q-58 0 -97 39q-41 41 -41 98q0 53 39 96q41 41 97 41q59 0 98 -38q39 -39 39 -99h2z" />
    <glyph glyph-name="afii57407" unicode="&#x61f;" horiz-adv-x="944" 
d="M735 1020q-140 123 -244 123q-195 0 -195 -185q0 -102 121 -223q150 -145 150 -405h-154q0 205 -135 327q-168 148 -168 324q0 137 98 229q101 95 242 95q211 0 381 -189zM614 123q0 -47 -37 -84q-37 -39 -88 -39q-49 0 -88 35q-37 35 -37 90q0 53 37 86q37 37 86 37
q51 0 90 -35q35 -35 35 -90h2z" />
    <glyph glyph-name="afii57409" unicode="&#x621;" horiz-adv-x="1224" 
d="M98 0v184h193q0 484 399 484q143 0 307 -111q-4 -14 -7 -30.5t-7 -32.5q-11 -37 -25 -80q-96 78 -215 73q-248 -6 -248 -303h285l186 23l160 -207h-1028z" />
    <glyph glyph-name="tatweel" unicode="&#x640;" horiz-adv-x="454" 
d="M-28 0v184h512v-184h-512z" />
    <glyph glyph-name="afii57392" unicode="&#x660;" horiz-adv-x="538" 
d="M143 100v283l252 61v-278z" />
    <glyph glyph-name="afii57393" unicode="&#x661;" horiz-adv-x="546" 
d="M381 1051v-899l-201 -154v1051l-37 223l260 59z" />
    <glyph glyph-name="afii57394" unicode="&#x662;" horiz-adv-x="864" 
d="M348 658v-658h-205v1264l205 59v-465q46 -45 95 -45q84 0 84 88v148l-33 215l227 55v-445q0 -110 -65 -176q-66 -67 -176 -67q-73 0 -132 27z" />
    <glyph glyph-name="afii57395" unicode="&#x663;" horiz-adv-x="1234" 
d="M1091 874q0 -110 -65 -176q-66 -67 -176 -67q-115 0 -195 67q-66 -67 -174 -67q-76 0 -133 33v-664h-205v1264l205 59v-453q55 -57 96 -57q84 0 84 88v148l-33 215l223 55v-461q46 -45 95 -45q84 0 84 88v148l-33 215l227 55v-445v0z" />
    <glyph glyph-name="afii57396" unicode="&#x664;" horiz-adv-x="1316" 
d="M950 640l19 -88h-500q-62 -72 -62 -148q0 -130 120 -130h203l294 51l75 -351h-608q-151 0 -241 100q-92 103 -92 273t85 293q-85 122 -85 292t92 273q90 100 241 100h608l-75 -351l-294 51h-203q-120 0 -120 -130q0 -76 62 -148h460z" />
    <glyph glyph-name="afii57397" unicode="&#x665;" horiz-adv-x="1087" 
d="M921 972v-557q0 -409 -393 -409q-182 0 -289 123q-96 111 -96 279q0 383 35 537q33 90 100 157q68 68 160 91q94 37 211 37q143 0 295 -47zM710 1076q-12 2 -24.5 4t-26.5 4q-14 0 -27.5 1t-27.5 1q-258 10 -258 -307q0 -465 49 -537q53 -72 133 -72q207 0 207 294
q0 -2 -1 10.5t-3 310.5q-4 56 -13 172z" />
    <glyph glyph-name="afii57398" unicode="&#x666;" horiz-adv-x="1142" 
d="M794 0l-2 1139h-297l-202 -31l-150 211h856v-1319h-205z" />
    <glyph glyph-name="afii57399" unicode="&#x667;" horiz-adv-x="1443" 
d="M1175 1090l-340 -1090h-227l-340 1090l-125 229h279q4 -39 77.5 -309.5t221.5 -778.5q43 140 78.5 257.5t64.5 216.5q29 100 49.5 180t36.5 143q35 139 52.5 211t19.5 80h278z" />
    <glyph glyph-name="afii57400" unicode="&#x668;" horiz-adv-x="1443" 
d="M1022 0l-62 205l-237 885l-299 -1090h-281l127 229l338 1090h229l338 -1090l125 -229h-278z" />
    <glyph glyph-name="afii57401" unicode="&#x669;" horiz-adv-x="970" 
d="M827 0h-203v551q-90 -29 -174 -29q-143 0 -223 96q-84 97 -84 265q0 198 115 315q114 121 305 121h264v-1319zM624 1178h-75q-93 0 -146 -66q-55 -68 -55 -190q0 -224 149 -224q72 0 127 21v459z" />
    <glyph glyph-name="afii57381" unicode="&#x66a;" horiz-adv-x="829" 
d="M362 1110q0 -45 -33 -82q-35 -35 -84 -35q-47 0 -80 33q-37 35 -37 84q0 43 33 80q35 35 82 35q49 0 82 -33q35 -33 35 -82h2zM266 -29l-156 45l426 1241l158 -49zM718 197q0 -47 -33 -84q-34 -35 -81 -35q-50 0 -82 33q-37 34 -37 86q0 43 33 79q34 35 84 35
q49 0 81 -32q35 -35 35 -82z" />
    <glyph glyph-name="afii63167" unicode="&#x66d;" horiz-adv-x="961" 
d="M877 581l-176 -178l-60 58l179 179zM613 473h-82v252h82v-252zM961 292h-251v82h251v-82zM502 464l-58 -60l-177 179l57 58zM876 86l-59 -59l-184 185l60 58zM611 -56h-82v259h82v-259zM431 292h-251v82h251v-82zM502 205l-178 -178l-57 59l177 179z" />
    <glyph glyph-name="aekurdi" unicode="&#x6d5;" horiz-adv-x="1062" 
d="M964 469q0 -207 -121 -340q-120 -129 -321 -129q-197 0 -309 123q-115 123 -115 332q0 215 117 346q116 133 329 133q199 0 310 -121q110 -123 110 -344zM745 469q0 326 -209 326q-221 0 -221 -326q0 -330 213 -330q217 0 217 330z" />
    <glyph glyph-name="afii62843" unicode="&#x6f4;" horiz-adv-x="1316" 
d="M950 640l19 -88h-500q-62 -72 -62 -148q0 -130 120 -130h203l294 51l75 -351h-608q-151 0 -241 100q-92 103 -92 273t85 293q-85 122 -85 292t92 273q90 100 241 100h608l-75 -351l-294 51h-203q-120 0 -120 -130q0 -76 62 -148h460z" />
    <glyph glyph-name="afii62844" unicode="&#x6f5;" horiz-adv-x="1087" 
d="M921 972v-557q0 -409 -393 -409q-182 0 -289 123q-96 111 -96 279q0 383 35 537q33 90 100 157q68 68 160 91q94 37 211 37q143 0 295 -47zM710 1076q-12 2 -24.5 4t-26.5 4q-14 0 -27.5 1t-27.5 1q-258 10 -258 -307q0 -465 49 -537q53 -72 133 -72q207 0 207 294
q0 -2 -1 10.5t-3 310.5q-4 56 -13 172z" />
    <glyph glyph-name="afii62845" unicode="&#x6f6;" horiz-adv-x="1142" 
d="M794 0l-2 1139h-297l-202 -31l-150 211h856v-1319h-205z" />
    <glyph glyph-name="afii57506" unicode="&#x67e;" horiz-adv-x="1802" 
d="M1704 299q0 -141 -80 -219q-80 -80 -221 -80h-920q-176 0 -281 121q-104 123 -104 321q0 154 80 291h182q-96 -139 -96 -250q0 -299 244 -299h843q152 0 152 162v203l-39 262l240 55v-567zM1239 -328q0 -55 -37 -88q-41 -37 -90 -37t-86 37q-39 39 -39 88q0 54 37 88
q41 35 88 35q51 0 90 -35q37 -36 37 -88zM911 -328q0 -55 -37 -88q-41 -37 -90 -37t-86 37q-39 39 -39 88q0 54 37 88q41 35 88 35q51 0 90 -35q37 -36 37 -88zM1073 -643q0 -55 -37 -88q-37 -37 -88 -37q-49 0 -88 35q-37 37 -37 88q0 55 37 90q39 35 88 35t88 -35
q37 -37 37 -88z" />
    <glyph glyph-name="afii57505" unicode="&#x6a4;" horiz-adv-x="1806" 
d="M1708 518q-4 -278 -111 -395q-115 -123 -348 -123h-766q-176 0 -281 121q-104 123 -104 321q0 154 80 291h182q-96 -139 -96 -250q0 -299 244 -299h757q205 0 224 123q-48 -24 -134 -24q-344 0 -344 323q0 176 125 264q97 66 219 66q173 0 267 -94q86 -86 86 -228v-96z
M1507 610q0 201 -145 201q-150 0 -150 -219q0 -178 137 -178q92 0 154 30q2 17 2 36.5t2 39.5v90zM1508 1411q0 -49 -37 -86q-37 -36 -88 -36q-49 0 -88 34q-37 37 -37 88q0 52 37 88q37 39 88 39t88 -36q37 -37 37 -91zM1672 1094q0 -51 -35 -86q-37 -37 -90 -37
q-50 0 -88 35q-37 35 -37 90q0 53 37 86q36 37 88 37q49 0 88 -35q37 -37 37 -90zM1346 1094q0 -51 -37 -86q-37 -37 -90 -37q-47 0 -86 35q-39 33 -39 90q0 53 37 86q39 37 88 37t88 -35q39 -37 39 -90z" />
    <glyph glyph-name="afii57507" unicode="&#x686;" horiz-adv-x="1146" 
d="M833 47q0 -84 -84 -84t-84 84q0 82 84 82t84 -82zM299 207l2 -209q0 -129 119 -217q120 -90 321 -111l-82 -125q-561 70 -561 518v318h745v149q0 185 -251 185q-248 0 -248 -203h-152q0 178 129 279q125 96 299 96t301 -92q127 -93 127 -236v-352h-749zM614 47
q0 -84 -84 -84q-80 0 -80 84q0 82 80 82q84 0 84 -82zM723 -162q0 -84 -84 -84q-80 0 -80 80q0 84 80 84q84 0 84 -80z" />
    <glyph glyph-name="afii57508" unicode="&#x698;" horiz-adv-x="607" 
d="M508 86q0 -416 -440 -539l-43 80q282 88 282 396l-2 514l-41 274l244 55v-780zM468 1511q0 -49 -37 -86q-37 -36 -88 -36q-49 0 -88 34q-37 37 -37 88q0 52 37 88q37 39 88 39t88 -36q37 -37 37 -91zM632 1194q0 -51 -35 -86q-37 -37 -90 -37q-50 0 -88 35q-37 35 -37 90
q0 53 37 86q36 37 88 37q49 0 88 -35q37 -37 37 -90zM306 1194q0 -51 -37 -86q-37 -37 -90 -37q-47 0 -86 35q-39 33 -39 90q0 53 37 86q39 37 88 37t88 -35q39 -37 39 -90z" />
    <glyph glyph-name="afii57567" unicode="&#x6a9;" horiz-adv-x="1762" 
d="M1305 0h-822q-176 0 -281 121q-104 123 -104 321q0 154 80 291h182q-96 -139 -96 -250q0 -299 244 -299h797v-184zM1217 0v184h111q147 0 147 168v967l240 -55l-35 -263v-696q0 -143 -82 -225q-80 -80 -221 -80h-160zM581 628v127h94q0 131 68 211q67 82 190 82
q101 0 197 -67q-4 -11 -9 -22t-9 -23q-11 -23 -21 -58q-59 49 -115 47q-143 -2 -139 -170h127l117 11l108 -138h-608z" />
    <glyph glyph-name="afii57509" unicode="&#x6af;" horiz-adv-x="1969" 
d="M483 0q-176 0 -281 121q-104 123 -104 321q0 154 80 291h182q-96 -139 -96 -250q0 -299 244 -299h1172v299q0 236 -347 236h-723q95 92 176.5 173t151.5 157q141 151 240 270h293l-291 -240l-185 -184h381q244 0 373 -98q131 -101 131 -279v-518h-1397zM642 1063
q141 151 233 256h183l-204 -226l-265 -259l-1 172q28 29 54 57z" />
    <glyph glyph-name="afii57555" unicode="&#x6cc;" horiz-adv-x="1433" 
d="M1374 8q0 -172 -117 -311q-119 -135 -299 -162h-319q-291 0 -441 182q-139 168 -139 465v371h201v-367q0 -241 104 -379q105 -139 301 -139h244q117 15 190 123q64 88 64 180h-197q-86 0 -151 27q-35 14 -64.5 32.5t-52.5 43.5q-51 53 -78 123q-29 75 -29 165
q0 224 134 363q135 139 348 139h198l-30 -137h-183q-256 0 -256 -328q0 -256 191 -256h379v-135h2z" />
    <glyph glyph-name="afii52400" unicode="&#x622;" horiz-adv-x="483" 
d="M373 1051v-1051h-203v1049l-30 254l256 20zM539 1550q-55 -139 -166 -139q-72 0 -164 68q-61 43 -104 43q-54 0 -84 -74l-76 33q49 137 160 137q73 0 170 -66q63 -43 104 -43q55 0 84 74z" />
    <glyph glyph-name="afii57411" unicode="&#x623;" horiz-adv-x="483" 
d="M376 1051v-1051h-203v1049l-30 254l256 20zM30 1417v76h74q0 88 43 139q43 56 121 56q63 0 122 -41q-2 -7 -4 -13t-6 -14t-7 -17.5t-7 -19.5q-47 39 -74 39q-86 -2 -86 -129h100l76 8l70 -84h-422z" />
    <glyph glyph-name="afii57412" unicode="&#x624;" horiz-adv-x="966" 
d="M868 84q0 -424 -440 -539l-43 86q254 68 280 359q-114 -35 -219 -35q-151 0 -254 127q-94 119 -94 285q0 215 117 352q125 147 336 147h317v-782zM667 743h-108q-123 0 -191 -92q-69 -90 -69 -252q0 -305 190 -305q86 0 178 35v614zM145 997v127h94q0 131 68 211
q67 82 190 82q101 0 197 -67q-4 -11 -9 -22t-9 -23q-11 -23 -21 -58q-59 49 -115 47q-143 -2 -139 -170h127l117 11l108 -138h-608z" />
    <glyph glyph-name="afii57413" unicode="&#x625;" horiz-adv-x="483" 
d="M376 1051v-1051h-203v1049l-30 254l256 20zM30 -391v78h74q0 86 43 141t121 55q63 0 122 -43l-4 -12t-6 -14q-4 -9 -7 -18t-7 -19q-45 39 -74 39q-86 -4 -86 -129h100l76 8l70 -86h-422z" />
    <glyph glyph-name="afii57414" unicode="&#x626;" horiz-adv-x="1433" 
d="M-141 684v123h117q0 283 260 283q104 0 194 -64q-16 -43 -36 -104q-54 49 -117 45q-139 -4 -139 -160h161l119 14l109 -137h-668zM1411 8q0 -172 -116 -311q-119 -135 -299 -162h-320q-291 0 -440 182q-139 168 -139 465v371h200v-367q0 -241 105 -379q104 -139 301 -139
h243q117 15 191 123q63 88 63 180h-196q-86 0 -152 27q-35 14 -64.5 32.5t-51.5 43.5q-52 53 -78 123q-29 75 -29 165q0 224 133 363q135 139 348 139h199l-31 -137h-182q-256 0 -256 -328q0 -256 190 -256h381v-135z" />
    <glyph glyph-name="afii57415" unicode="&#x627;" horiz-adv-x="483" 
d="M348 1051v-1051h-203v1049l-33 254l256 20z" />
    <glyph glyph-name="afii57416" unicode="&#x628;" horiz-adv-x="1802" 
d="M1704 299q0 -141 -80 -219q-80 -80 -221 -80h-920q-176 0 -281 121q-104 123 -104 321q0 154 80 291h182q-96 -139 -96 -250q0 -299 244 -299h843q152 0 152 162v203l-39 262l240 55v-567zM1071 -330q0 -47 -37 -84q-37 -39 -90 -39q-47 0 -86 35q-39 33 -39 90
q0 52 37 86q39 37 88 37t88 -35q39 -36 39 -90z" />
    <glyph glyph-name="afii57417" unicode="&#x629;" horiz-adv-x="1062" 
d="M964 469q0 -207 -121 -340q-120 -129 -321 -129q-197 0 -309 123q-115 123 -115 332q0 215 117 346q116 133 329 133q199 0 310 -121q110 -123 110 -344zM745 469q0 326 -209 326q-221 0 -221 -326q0 -330 213 -330q217 0 217 330zM820 1124q0 -51 -35 -86
q-37 -37 -90 -37q-51 0 -86 35q-37 35 -37 90q0 51 35 86q37 37 88 37q53 0 88 -35q37 -37 37 -90zM492 1124q0 -51 -35 -86q-37 -37 -90 -37q-51 0 -86 35q-37 35 -37 90q0 51 35 86q37 37 88 37q53 0 88 -35q37 -37 37 -90z" />
    <glyph glyph-name="afii57418" unicode="&#x62a;" horiz-adv-x="1802" 
d="M1196 858q0 -51 -35 -86q-37 -37 -88 -37q-53 0 -88 35q-37 35 -37 90q0 51 35 86q37 37 90 37q51 0 86 -35q37 -37 37 -90zM868 858q0 -51 -35 -86q-37 -37 -88 -37q-53 0 -88 35q-37 35 -37 90q0 51 35 86q37 37 90 37q51 0 86 -35q37 -37 37 -90zM1704 299
q0 -141 -80 -219q-80 -80 -221 -80h-920q-176 0 -281 121q-104 123 -104 321q0 154 80 291h182q-96 -139 -96 -250q0 -299 244 -299h843q152 0 152 162v203l-39 262l240 55v-567z" />
    <glyph glyph-name="afii57419" unicode="&#x62b;" horiz-adv-x="1802" 
d="M1032 1174q0 -48 -37 -84q-37 -39 -90 -39q-47 0 -86 34q-37 35 -37 93q0 49 37 86q37 36 86 36q53 0 90 -36q37 -37 37 -90zM1196 858q0 -51 -35 -86q-37 -37 -90 -37q-49 0 -88 35q-39 33 -39 88q0 51 37 88q39 37 90 37q47 0 86 -35q39 -37 39 -90zM868 858
q0 -51 -35 -86q-37 -37 -90 -37q-49 0 -88 35q-39 33 -39 88q0 51 37 88q39 37 90 37q47 0 86 -35q39 -37 39 -90zM1704 299q0 -141 -80 -219q-80 -80 -221 -80h-920q-176 0 -281 121q-104 123 -104 321q0 154 80 291h182q-96 -139 -96 -250q0 -299 244 -299h843
q152 0 152 162v203l-39 262l240 55v-567z" />
    <glyph glyph-name="afii57420" unicode="&#x62c;" horiz-adv-x="1146" 
d="M299 207l2 -209q0 -139 104 -234q113 -102 301 -126l-47 -93q-561 70 -561 518v318h745v172q0 184 -251 184q-62 0 -111 -14q-57 -16 -90 -39q-41 -29 -62 -63q-22 -39 -22 -84q10 -2 7 -2h-17h-105q0 178 129 278q125 96 299 96t301 -92t127 -235v-375h-749zM774 -47
q0 -47 -37 -84q-37 -39 -88 -39q-49 0 -88 35q-39 37 -39 90q0 51 37 88q39 39 90 39q49 0 86 -37q39 -37 39 -92z" />
    <glyph glyph-name="afii57421" unicode="&#x62d;" horiz-adv-x="1146" 
d="M299 207l2 -209q0 -139 104 -234q113 -102 301 -126l-47 -93q-561 70 -561 518v318h745v172q0 184 -251 184q-62 0 -111 -14q-57 -16 -90 -39q-41 -29 -62 -63q-22 -39 -22 -84q10 -2 7 -2h-17h-105q0 178 129 278q125 96 299 96t301 -92t127 -235v-375h-749z" />
    <glyph glyph-name="afii57422" unicode="&#x62e;" horiz-adv-x="1146" 
d="M745 1194q0 -51 -35 -86q-37 -37 -88 -37q-53 0 -88 35q-37 35 -37 88t35 88q37 37 90 37q51 0 86 -35q37 -37 37 -90zM299 207l2 -209q0 -139 104 -234q113 -102 301 -126l-47 -93q-561 70 -561 518v318h745v172q0 184 -251 184q-62 0 -111 -14q-57 -16 -90 -39
q-41 -29 -62 -63q-22 -39 -22 -84q10 -2 7 -2h-17h-105q0 178 129 278q125 96 299 96t301 -92t127 -235v-375h-749z" />
    <glyph glyph-name="afii57423" unicode="&#x62f;" horiz-adv-x="1009" 
d="M880 186l31 -186h-813l53 184h518l7 43v215q0 152 -60 238q-53 78 -143 78q-35 0 -64 -15q0 9 -1 20t-3 25q0 15 -2 32.5t-4 37.5h7t14 2q14 4 43 6q186 0 301 -131q116 -133 116 -327v-222z" />
    <glyph glyph-name="afii57424" unicode="&#x630;" horiz-adv-x="1009" 
d="M604 1194q0 -51 -35 -86q-35 -37 -88 -37q-51 0 -90 35q-37 35 -37 88q0 55 37 88q37 37 90 37q47 0 86 -35q37 -37 37 -90zM880 186l31 -186h-813l53 184h518l7 43v215q0 152 -60 238q-53 78 -143 78q-35 0 -64 -15q0 9 -1 20t-3 25q0 15 -2 32.5t-4 37.5h7t14 2
q14 4 43 6q186 0 301 -131q116 -133 116 -327v-222z" />
    <glyph glyph-name="afii57425" unicode="&#x631;" horiz-adv-x="544" 
d="M513 86q0 -416 -440 -539l-43 80q283 88 283 396l-2 514l-41 274l243 55v-780v0z" />
    <glyph glyph-name="afii57426" unicode="&#x632;" horiz-adv-x="544" 
d="M497 1194q0 -51 -35 -86q-37 -37 -90 -37q-51 0 -86 35q-37 35 -37 88t35 88q37 37 88 37q47 0 86 -35q39 -37 39 -90zM513 86q0 -416 -440 -539l-43 80q283 88 283 396l-2 514l-41 274l243 55v-780z" />
    <glyph glyph-name="afii57427" unicode="&#x633;" horiz-adv-x="2437" 
d="M2345 297q0 -133 -82 -215q-80 -82 -215 -82q-164 0 -277 117q-84 -117 -247 -117q-132 0 -232 80q-14 -240 -164 -397q-168 -175 -454 -175q-295 0 -443 193q-139 176 -139 489v398h201v-389q0 -256 106 -406q107 -147 299 -147q164 0 273 139q59 74 87.5 172t28.5 221
v602l205 49v-579q74 -68 178 -68q146 0 146 162v397l200 45v-528q76 -76 177 -76q147 0 147 162v201l-39 266l242 55v-569h2z" />
    <glyph glyph-name="afii57428" unicode="&#x634;" horiz-adv-x="2437" 
d="M2345 297q0 -133 -82 -215q-80 -82 -215 -82q-164 0 -277 117q-84 -117 -247 -117q-132 0 -232 80q-14 -240 -164 -397q-168 -175 -454 -175q-295 0 -443 193q-139 176 -139 489v398h201v-389q0 -256 106 -406q107 -147 299 -147q164 0 273 139q59 74 87.5 172t28.5 221
v602l205 49v-579q74 -68 178 -68q146 0 146 162v397l200 45v-528q76 -76 177 -76q147 0 147 162v201l-39 266l242 55v-569h2zM1657 1194q0 -51 -37 -86q-37 -37 -88 -37t-90 35t-39 90q0 51 39 86q36 37 88 37q49 0 88 -35q37 -37 37 -90h2zM1984 1194q0 -51 -37 -86
q-36 -37 -90 -37q-49 0 -88 35t-39 90q0 51 39 86q37 37 86 37q52 0 90 -35q39 -39 39 -90zM1818 1511q0 -49 -36 -86q-37 -36 -88 -36q-50 0 -89 34q-36 37 -36 88q0 52 36 88q37 39 86 39q54 0 91 -36q34 -35 34 -91h2z" />
    <glyph glyph-name="afii57429" unicode="&#x635;" horiz-adv-x="2674" 
d="M1280 0q-17 -98 -55.5 -176t-98.5 -141q-164 -175 -454 -175q-293 0 -443 193q-137 178 -137 489v398h201v-389q0 -260 106 -406q107 -147 299 -147q160 0 273 139q59 74 87.5 172t28.5 221v602l205 49v-577l53 67q340 537 742 537q215 0 356 -100q139 -99 139 -273v-483
h-1302zM2378 451q0 233 -336 233q-187 0 -385 -209q-158 -164 -205 -291h926v267z" />
    <glyph glyph-name="afii57430" unicode="&#x636;" horiz-adv-x="2674" 
d="M1280 0q-17 -98 -55.5 -176t-98.5 -141q-164 -175 -454 -175q-293 0 -443 193q-137 178 -137 489v398h201v-389q0 -260 106 -406q107 -147 299 -147q160 0 273 139q59 74 87.5 172t28.5 221v602l205 49v-577l53 67q340 537 742 537q215 0 356 -100q139 -99 139 -273v-483
h-1302zM2378 451q0 233 -336 233q-187 0 -385 -209q-158 -164 -205 -291h926v267zM2169 1194q0 -51 -37 -86q-37 -37 -90 -37q-47 0 -86 35q-37 35 -37 88q0 55 37 88q37 37 86 37q51 0 90 -35q37 -37 37 -90z" />
    <glyph glyph-name="afii57431" unicode="&#x637;" horiz-adv-x="1820" 
d="M98 0l25 213l235 -29q-2 6 -2 58.5t-2 152.5v588l-31 252l258 22l-22 -270v-594q45 84 110.5 159t151.5 146q215 174 407 174q218 0 355 -100q139 -102 139 -274v-498h-1624zM1515 465q0 233 -330 233q-178 0 -395 -209q-184 -174 -229 -305h954v281z" />
    <glyph glyph-name="afii57432" unicode="&#x638;" horiz-adv-x="1820" 
d="M1331 1194q0 -51 -37 -86q-37 -37 -90 -37q-47 0 -86 35q-39 33 -39 88t37 88q39 37 88 37t88 -35q39 -37 39 -90zM98 0l25 213l235 -29q-2 6 -2 58.5t-2 152.5v588l-31 252l258 22l-22 -270v-594q45 84 110.5 159t151.5 146q215 174 407 174q218 0 355 -100
q139 -102 139 -274v-498h-1624zM1515 465q0 233 -330 233q-178 0 -395 -209q-184 -174 -229 -305h954v281z" />
    <glyph glyph-name="afii57433" unicode="&#x639;" horiz-adv-x="1243" 
d="M536 244q-211 0 -232 -162q-2 -16 -4 -30.5t-2 -31.5q0 -165 123 -272q111 -96 293 -117l-56 -86q-217 21 -362 119q-186 127 -199 356q-14 283 246 377v27q0 205 115 344q117 141 291 141q168 0 362 -145l-78 -100q-114 96 -237 96q-56 0 -101 -25q-49 -28 -80 -71
q-16 -23 -28 -49.5t-23 -59.5q-18 -63 -18 -141h305l266 30l27 -200h-608z" />
    <glyph glyph-name="afii57434" unicode="&#x63a;" horiz-adv-x="1243" 
d="M882 1194q0 -51 -35 -86q-37 -37 -88 -37q-53 0 -88 35q-37 35 -37 90q0 53 37 86q33 37 88 37q49 0 88 -35q35 -39 35 -90zM536 244q-211 0 -232 -162q-2 -16 -4 -30.5t-2 -31.5q0 -165 123 -272q111 -96 293 -117l-56 -86q-217 21 -362 119q-186 127 -199 356
q-14 283 246 377v27q0 205 115 344q117 141 291 141q168 0 362 -145l-78 -100q-114 96 -237 96q-56 0 -101 -25q-49 -28 -80 -71q-16 -23 -28 -49.5t-23 -59.5q-18 -63 -18 -141h305l266 30l27 -200h-608z" />
    <glyph glyph-name="afii57441" unicode="&#x641;" horiz-adv-x="1806" 
d="M1484 1194q0 -51 -36 -86q-37 -37 -90 -37q-48 0 -86 35q-37 35 -37 90q0 53 37 86q36 37 86 37q51 0 90 -35q36 -37 36 -90zM1708 518q-4 -278 -111 -395q-115 -123 -348 -123h-766q-176 0 -281 121q-104 123 -104 321q0 154 80 291h182q-96 -139 -96 -250
q0 -299 244 -299h757q205 0 224 123q-48 -24 -134 -24q-344 0 -344 323q0 176 125 264q97 66 219 66q173 0 267 -94q86 -86 86 -228v-96zM1507 610q0 201 -145 201q-150 0 -150 -219q0 -178 137 -178q92 0 154 30q2 17 2 36.5t2 39.5v90z" />
    <glyph glyph-name="afii57442" unicode="&#x642;" horiz-adv-x="1363" 
d="M1212 1194q0 -51 -35 -86q-37 -37 -90 -37q-49 0 -88 35q-39 33 -39 90q0 53 37 86q39 37 90 37q47 0 86 -35q39 -37 39 -90zM886 1194q0 -51 -36 -86q-37 -37 -90 -37q-48 0 -87 35q-38 33 -38 90q0 53 36 86q39 37 89 37q49 0 88 -35q38 -37 38 -90zM1265 8
q0 -459 -536 -459q-307 0 -469 168t-162 484v121h199v-115q0 -522 448 -522q305 0 318 305q-131 -29 -228 -29q-164 0 -256 111q-96 114 -96 309q0 219 133 364q131 142 348 142h301v-879zM1056 745h-106q-254 0 -254 -331q0 -277 190 -277q74 0 170 29v579z" />
    <glyph glyph-name="afii57443" unicode="&#x643;" horiz-adv-x="1762" 
d="M1305 0h-822q-176 0 -281 121q-104 123 -104 321q0 154 80 291h182q-96 -139 -96 -250q0 -299 244 -299h797v-184zM1217 0v184h111q147 0 147 168v967l240 -55l-35 -263v-696q0 -143 -82 -225q-80 -80 -221 -80h-160zM581 628v127h94q0 131 68 211q67 82 190 82
q101 0 197 -67q-4 -11 -9 -22t-9 -23q-11 -23 -21 -58q-59 49 -115 47q-143 -2 -139 -170h127l117 11l108 -138h-608z" />
    <glyph glyph-name="afii57444" unicode="&#x644;" horiz-adv-x="1394" 
d="M1296 154q0 -273 -166 -439t-454 -166q-293 0 -443 183q-135 166 -135 469v379h201v-371q0 -248 106 -387q107 -141 299 -141q158 0 275 139q116 137 116 370v416v381l-43 275l244 57v-1165z" />
    <glyph glyph-name="afii57445" unicode="&#x645;" horiz-adv-x="1523" 
d="M1405 645v-285q0 -360 -457 -360h-498q-149 0 -149 -154v-266l-203 137v185q0 131 80 207q82 75 223 75h287q-62 105 -62 219q0 228 136 365q135 137 370 137q142 0 293 -47zM1194 750q-43 14 -107 14q-258 0 -258 -322q0 -258 176 -258q219 0 219 275q0 16 -1 35.5
t-3 42.5q0 22 -3 44.5t-7 49.5z" />
    <glyph glyph-name="afii57446" unicode="&#x646;" horiz-adv-x="1394" 
d="M815 559q0 -51 -35 -86q-37 -37 -90 -37q-51 0 -86 35q-37 35 -37 90q0 51 35 86q37 37 88 37q53 0 88 -35q37 -37 37 -90zM1296 145q0 -270 -166 -432q-168 -164 -454 -164q-295 0 -443 181q-135 166 -135 463v372h201v-366q0 -60 7 -114t19 -101q27 -99 80 -166
q53 -68 127 -103q76 -37 172 -37q160 0 271 132q120 145 120 372q0 350 -2 355l-37 270l240 57v-719z" />
    <glyph glyph-name="afii57447" unicode="&#x647;" horiz-adv-x="1062" 
d="M964 469q0 -207 -121 -340q-120 -129 -321 -129q-197 0 -309 123q-115 123 -115 332q0 215 117 346q116 133 329 133q199 0 310 -121q110 -123 110 -344zM745 469q0 326 -209 326q-221 0 -221 -326q0 -330 213 -330q217 0 217 330z" />
    <glyph glyph-name="afii57470" unicode="&#x6be;" horiz-adv-x="1277" 
d="M-20 184h297q-33 60 -33 127q0 148 115 256q117 109 268 109q117 0 184 -62q78 -67 78 -190l-6 -240h117v369q0 119 -96 180q-101 66 -256 66q-176 0 -361 -80l33 151q172 66 383 66q215 0 342 -78q160 -94 160 -270v-588h-1225v184zM701 455q0 118 -84 118
q-66 0 -125 -75q-70 -86 -70 -199q0 -115 144 -115h135v271z" />
    <glyph glyph-name="afii57448" unicode="&#x648;" horiz-adv-x="966" 
d="M868 84q0 -424 -440 -539l-43 86q254 68 280 359q-114 -35 -219 -35q-151 0 -254 127q-94 119 -94 285q0 215 117 352q125 147 336 147h317v-782zM667 743h-108q-123 0 -191 -92q-69 -90 -69 -252q0 -305 190 -305q86 0 178 35v614z" />
    <glyph glyph-name="afii57449" unicode="&#x649;" horiz-adv-x="1433" 
d="M1374 8q0 -172 -117 -311q-119 -135 -299 -162h-319q-291 0 -441 182q-139 168 -139 465v371h201v-367q0 -241 104 -379q105 -139 301 -139h244q117 15 190 123q64 88 64 180h-197q-86 0 -151 27q-35 14 -64.5 32.5t-52.5 43.5q-51 53 -78 123q-29 75 -29 165
q0 224 134 363q135 139 348 139h198l-30 -137h-183q-256 0 -256 -328q0 -256 191 -256h379v-135h2z" />
    <glyph glyph-name="afii57450" unicode="&#x64a;" horiz-adv-x="1433" 
d="M1374 8q0 -172 -117 -311q-119 -135 -299 -162h-319q-291 0 -441 182q-139 168 -139 465v371h201v-367q0 -241 104 -379q105 -139 301 -139h244q117 15 190 123q64 88 64 180h-197q-86 0 -151 27q-35 14 -64.5 32.5t-52.5 43.5q-51 53 -78 123q-29 75 -29 165
q0 224 134 363q135 139 348 139h198l-30 -137h-183q-256 0 -256 -328q0 -256 191 -256h379v-135h2zM980 -630q0 -47 -37 -84q-37 -39 -88 -39q-52 0 -90 35q-39 35 -39 90q0 52 39 86q36 37 88 37q49 0 88 -35q37 -36 37 -90h2zM654 -630q0 -43 -37 -84q-39 -39 -90 -39
q-49 0 -88 35t-39 90q0 52 39 86q37 37 86 37q51 0 90 -35q37 -36 37 -90h2z" />
    <glyph glyph-name="uni0676" unicode="&#x676;" horiz-adv-x="966" 
d="M868 84q0 -424 -440 -539l-43 86q254 68 280 359q-114 -35 -219 -35q-151 0 -254 127q-94 119 -94 285q0 215 117 352q125 147 336 147h317v-782zM667 743h-108q-123 0 -191 -92q-69 -90 -69 -252q0 -305 190 -305q86 0 178 35v614zM145 997v127h94q0 131 68 211
q67 82 190 82q101 0 197 -67q-4 -11 -9 -22t-9 -23q-11 -23 -21 -58q-59 49 -115 47q-143 -2 -139 -170h127l117 11l108 -138h-608z" />
    <glyph glyph-name="uni0695" unicode="&#x695;" horiz-adv-x="544" 
d="M513 86q0 -416 -440 -539l-43 80q283 88 283 396l-2 514l-41 274l243 55v-780v0zM198 -802q-51 23 -88 72q-65 74 -65 159q1 22 3 33q1 3 1 5.5v33.5q34 -5 41 -6t14 -1q8 -2 12 -2.5t30 -0.5q-8 -51 -8 -69q0 -48 27 -75q20 -21 46 -28q27 7 47 28q27 27 27 75
q0 18 -8 69q26 0 30 0.5t12 2.5q7 0 14 1t41 6v-33.5t1 -5.5q2 -11 3 -33q0 -85 -65 -159q-37 -49 -88 -72h-27z" />
    <glyph glyph-name="uniE001" unicode="&#xe001;" horiz-adv-x="696" 
d="M566 0q-62 0 -103 14q-37 -356 -438 -467l-45 80q285 88 285 396l-2 514l-41 274l243 55v-512q0 -170 150 -170h115v-184h-164zM158 -802q-51 23 -88 72q-65 74 -65 159q1 22 3 33q1 3 1 5.5v33.5q34 -5 41 -6t14 -1q8 -2 12 -2.5t30 -0.5q-8 -51 -8 -69q0 -48 27 -75
q20 -21 46 -28q27 7 47 28q27 27 27 75q0 18 -8 69q26 0 30 0.5t12 2.5q7 0 14 1t41 6v-33.5t1 -5.5q2 -11 3 -33q0 -85 -65 -159q-37 -49 -88 -72h-27z" />
    <glyph glyph-name="uni06b5" unicode="&#x6b5;" horiz-adv-x="1394" 
d="M1296 154q0 -273 -166 -439t-454 -166q-293 0 -443 183q-135 166 -135 469v379h201v-371q0 -248 106 -387q107 -141 299 -141q158 0 275 139q116 137 116 370v797l-43 275l244 57v-1165zM1157 1390q-51 23 -88 72q-65 74 -65 159q1 22 3 33q1 3 1 5.5v33.5q34 -5 41 -6
t14 -1q8 -2 12 -2.5t30 -0.5q-8 -51 -8 -69q0 -48 27 -75q20 -21 46 -28q27 7 47 28q27 27 27 75q0 18 -8 69q26 0 30 0.5t12 2.5q7 0 14 1t41 6v-33.5t1 -5.5q2 -11 3 -33q0 -85 -65 -159q-37 -49 -88 -72h-27z" />
    <glyph glyph-name="uniE007" unicode="&#xe007;" horiz-adv-x="1560" 
d="M1412 0q-67 0 -110 14q-43 -215 -201 -340q-156 -125 -409 -125q-293 0 -443 183q-135 166 -135 469v379h201v-371q0 -248 106 -387q107 -141 299 -141q158 0 275 139q116 137 116 370v797l-43 275l244 57v-883q0 -145 35 -198q35 -54 115 -54h127v-184h-177zM1157 1390
q-51 23 -88 72q-65 74 -65 159q1 22 3 33q1 3 1 5.5v33.5q34 -5 41 -6t14 -1q8 -2 12 -2.5t30 -0.5q-8 -51 -8 -69q0 -48 27 -75q20 -21 46 -28q27 7 47 28q27 27 27 75q0 18 -8 69q26 0 30 0.5t12 2.5q7 0 14 1t41 6v-33.5t1 -5.5q2 -11 3 -33q0 -85 -65 -159
q-37 -49 -88 -72h-27z" />
    <glyph glyph-name="uniE008" unicode="&#xe008;" horiz-adv-x="743" 
d="M656 305q0 -141 -82 -223t-223 -82h-385v184h334q151 0 151 168v652l-36 270l239 57v-1026h2zM517 1390q-51 23 -88 72q-65 74 -65 159q1 22 3 33q1 3 1 5.5v33.5q34 -5 41 -6t14 -1q8 -2 12 -2.5t30 -0.5q-8 -51 -8 -69q0 -48 27 -75q20 -21 46 -28q27 7 47 28
q27 27 27 75q0 18 -8 69q26 0 30 0.5t12 2.5q7 0 14 1t41 6v-33.5t1 -5.5q2 -11 3 -33q0 -85 -65 -159q-37 -49 -88 -72h-27z" />
    <glyph glyph-name="uniE009" unicode="&#xe009;" horiz-adv-x="727" 
d="M619 0q-127 0 -203 63q-75 -63 -194 -63h-250v184h197q147 0 147 168v637l-39 275l244 55v-967q0 -168 147 -168h88v-184h-137zM397 1390q-51 23 -88 72q-65 74 -65 159q1 22 3 33q1 3 1 5.5v33.5q34 -5 41 -6t14 -1q8 -2 12 -2.5t30 -0.5q-8 -51 -8 -69q0 -48 27 -75
q20 -21 46 -28q27 7 47 28q27 27 27 75q0 18 -8 69q26 0 30 0.5t12 2.5q7 0 14 1t41 6v-33.5t1 -5.5q2 -11 3 -33q0 -85 -65 -159q-37 -49 -88 -72h-27z" />
    <glyph glyph-name="uni06c6" unicode="&#x6c6;" horiz-adv-x="966" 
d="M868 84q0 -424 -440 -539l-43 86q254 68 280 359q-114 -35 -219 -35q-151 0 -254 127q-94 119 -94 285q0 215 117 352q125 147 336 147h317v-782zM667 743h-108q-123 0 -191 -92q-69 -90 -69 -252q0 -305 190 -305q86 0 178 35v614zM537 970q-51 23 -88 72
q-65 74 -65 159q1 22 3 33q1 3 1 5.5v33.5q34 -5 41 -6t14 -1q8 -2 12 -2.5t30 -0.5q-8 -51 -8 -69q0 -48 27 -75q20 -21 46 -28q27 7 47 28q27 27 27 75q0 18 -8 69q26 0 30 0.5t12 2.5q7 0 14 1t41 6v-33.5t1 -5.5q2 -11 3 -33q0 -85 -65 -159q-37 -49 -88 -72h-27z" />
    <glyph glyph-name="uni06ce" unicode="&#x6ce;" horiz-adv-x="1433" 
d="M1374 8q0 -172 -117 -311q-119 -135 -299 -162h-319q-291 0 -441 182q-139 168 -139 465v371h201v-367q0 -241 104 -379q105 -139 301 -139h244q117 15 190 123q64 88 64 180h-197q-86 0 -151 27q-35 14 -64.5 32.5t-52.5 43.5q-51 53 -78 123q-29 75 -29 165
q0 224 134 363q135 139 348 139h198l-30 -137h-183q-256 0 -256 -328q0 -256 191 -256h379v-135h2zM401 611q-51 23 -88 72q-65 74 -65 159q1 22 3 33q1 3 1 5.5v33.5q34 -5 41 -6t14 -1q8 -2 12 -2.5t30 -0.5q-8 -51 -8 -69q0 -48 27 -75q20 -21 46 -28q27 7 47 28
q27 27 27 75q0 18 -8 69q26 0 30 0.5t12 2.5q7 0 14 1t41 6v-33.5t1 -5.5q2 -11 3 -33q0 -85 -65 -159q-37 -49 -88 -72h-27z" />
    <glyph glyph-name="uniE004" unicode="&#xe004;" horiz-adv-x="2009" 
d="M1830 0q-143 0 -223 80q-80 84 -80 225v422h-193q-258 0 -258 -328q0 -256 193 -256h172v-135q0 -176 -113 -307q-117 -133 -303 -154h-319q-297 0 -443 177q-137 157 -137 458v371h201v-367q0 -243 104 -374q105 -134 301 -134h244q119 23 188 123q66 86 68 174
q-162 2 -258 103q-109 104 -109 289q0 221 133 360q136 139 349 139h387l-4 -514q0 -168 147 -168h168v-184h-215zM576 553q-51 23 -88 72q-65 74 -65 159q1 22 3 33q1 3 1 5.5v33.5q34 -5 41 -6t14 -1q8 -2 12 -2.5t30 -0.5q-8 -51 -8 -69q0 -48 27 -75q20 -21 46 -28
q27 7 47 28q27 27 27 75q0 18 -8 69q26 0 30 0.5t12 2.5q7 0 14 1t41 6v-33.5t1 -5.5q2 -11 3 -33q0 -85 -65 -159q-37 -49 -88 -72h-27z" />
    <glyph glyph-name="uniE005" unicode="&#xe005;" horiz-adv-x="694" 
d="M597 297q0 -135 -82 -217q-80 -80 -221 -80h-316v184h265q151 0 151 162v203l-37 262l238 53v-567h2zM540 -330q0 -47 -37 -84q-37 -39 -88 -39q-52 0 -90 35q-39 35 -39 90q0 52 39 86q36 37 88 37q49 0 88 -35q37 -36 37 -90h2zM214 -330q0 -43 -37 -84
q-39 -39 -90 -39q-49 0 -88 35t-39 90q0 52 39 86q37 37 86 37q51 0 90 -35q37 -36 37 -90h2zM171 811q-51 23 -88 72q-65 74 -65 159q1 22 3 33q1 3 1 5.5v33.5q34 -5 41 -6t14 -1q8 -2 12 -2.5t30 -0.5q-8 -51 -8 -69q0 -48 27 -75q20 -21 46 -28q27 7 47 28q27 27 27 75
q0 18 -8 69q26 0 30 0.5t12 2.5q7 0 14 1t41 6v-33.5t1 -5.5q2 -11 3 -33q0 -85 -65 -159q-37 -49 -88 -72h-27z" />
    <glyph glyph-name="uniE006" unicode="&#xe006;" horiz-adv-x="737" 
d="M619 0q-125 0 -200 61q-80 -61 -197 -61h-246v184h191q151 0 151 162v211l-43 264l244 53v-528q0 -162 149 -162h105v-184h-154zM546 -330q0 -47 -37 -84q-37 -39 -88 -39q-49 0 -88 35q-37 33 -37 90q0 52 37 86q36 37 86 37q49 0 88 -35q37 -36 37 -90h2zM220 -330
q0 -43 -37 -84q-39 -39 -90 -39q-49 0 -88 35t-39 90q0 52 39 86q37 37 86 37q51 0 90 -35q37 -36 37 -90h2zM151 811q-51 23 -88 72q-65 74 -65 159q1 22 3 33q1 3 1 5.5v33.5q34 -5 41 -6t14 -1q8 -2 12 -2.5t30 -0.5q-8 -51 -8 -69q0 -48 27 -75q20 -21 46 -28
q27 7 47 28q27 27 27 75q0 18 -8 69q26 0 30 0.5t12 2.5q7 0 14 1t41 6v-33.5t1 -5.5q2 -11 3 -33q0 -85 -65 -159q-37 -49 -88 -72h-27z" />
    <glyph glyph-name="aekurdiFinal" unicode="&#xe000;" horiz-adv-x="1140" 
d="M989 0q-162 0 -261 104q-106 -57 -264 -59q-166 -4 -260 107q-94 110 -94 294q0 199 131 320q135 123 348 123h68l-15 92q136 35 246 55v-686q0 -166 150 -166h131v-184h-182h2zM690 756q-17 -2 -30 -2t-28 -2h-53q-111 -4 -182 -78q-78 -78 -76 -191q0 -268 188 -268
q93 0 179 25v516h2z" />
    <glyph glyph-name="nonJoiner" unicode="&#x200c;" horiz-adv-x="0" 
 />
    <glyph glyph-name="glyph330" horiz-adv-x="0" 
 />
    </font>
</defs>
</svg>
